Files
2023-06-15 19:15:39 -05:00

318 lines
12 KiB
Plaintext

//TJADB Project
TITLE:Makasete★Splash☆Star★
TITLEJA:まかせて★スプラッシュ☆スター★
SUBTITLE:--Yasuo Kosugi feat. Yuka Uchiyae/Futari wa Pretty Cure Splash☆Star
SUBTITLEJA:「ふたりはプリキュア スプラッシュスター」より
BPM:174.33
WAVE:Makasete★Splash Star★.ogg
OFFSET:-1.599
DEMOSTART:48.496
COURSE:Oni
LEVEL:7
SCOREINIT:1010
SCOREDIFF:150
#START
300000000000000000000000300000000000000000000000,
#BPMCHANGE 173.68
300000000000000000300000000000000000000000000000,
#BPMCHANGE 172.8
000000000000000000000000000000000000000000000000,
#BPMCHANGE 175.22
000000000000000000000000000000000000000000000000,
#BPMCHANGE 174
100000100000200000200000100100100000200000200000,
100000200200100000200000100000200000200000000000,
100000200200200000200000100000200200200000200000,
100000200200100000200000100000100000000000000000,
100000100000200000200000100100100000200000200000,
100000200200100000200000100000200000200000000000,
100000200200200000200000100000200200200000200000,
100000200200100000200000100000100000000000000000,
100000200000200000100100200000200000100000200000,
100000100100100000100100100000100100100000100000,
100000000000200000200000000000100000200000200000,
100000000000200000100000000000100000200000200000,
100000000000200000200000000000100000200000200000,
100000100100100000100100100000100000200000000000,
100000000000200000200000000000100000200000200000,
100000000000200000100000000000100000200000200000,
100000000000200000200000000000100000200000200000,
100000100100100000100100100000100000200000000000,
100000100000100000100000000000200200200000200000,
100000000000100000200000000000200000100000000000,
100000100000100000100000000000200200100000200000,
100000000000200000100000000000100000200000000000,
100000100100100000100100100000100100100000100000,
200000000000200000000000100000100000200000000000,
100000100100100000100100100000100100100000100000,
200000000000200000000000100000100000200000000000,
100000100100100000100100100000100100100000100000,
200000000000200000100000100000000000200000000000,
100000200000200000100100200000200000100000200000,
300000000000000000000000000000000000000000000000,
#GOGOSTART
100000100100200000000000100000100100200000000000,
100000100100200000200000100000100100200000000000,
100000100000200000200000100000100000200000200000,
100000200200100000200000100000200000200000000000,
100000100100200000000000100000100100200000000000,
100000100100200000200000100000100100200000000000,
100000100000200000200000100000100000200000200000,
100000200200100000200000100000200000200000000000,
#GOGOEND
300000000000000000000000000000000000000000000000,
100000100000200000200000100100100000200000200000,
100000200200100000200000100000200000200000000000,
100000200200200000200000100000200200200000200000,
100000200200100000200000100000100000000000000000,
100000100000200000200000100100100000200000200000,
100000200200100000200000100000200000200000000000,
100000200200200000200000100000200200200000200000,
100000200200100000200000100000100000000000000000,
100000200000200000100100200000200000100000200000,
100000100100100000100100100000100100100000200000,
100100100100100000000000100100100100100000000000,
100100100100200000200000100000100000000000100000,
000000000000000000000000000000000000400000000000,
400000000000000000000000100000100000100000100000,
000000300000000000000000000000000000000000000000,
#END
COURSE:Hard
LEVEL:5
BALLOON:6
SCOREINIT:870
SCOREDIFF:230
#START
#BPMCHANGE 174
300000000000000000000000300000000000000000000000,
300000000000000000300000000000000000000000000000,
000000000000000000000000000000000000000000000000,
000000000000000000000000000000000000000000000000,
100000100000200000200000100000100000200000000000,
100000200000100000200000100000000000000000000000,
100000100000200000200000100000100000200000000000,
100000000000100000000000100000100000000000000000,
100000100000200000200000100000100000200000000000,
100000200000100000200000100000000000000000000000,
100000100000200000200000100000100000200000000000,
100000000000100000000000100000100000000000000000,
100000000000200000100000000000200000100000000000,
100000100000100000100000100000100000100000100000,
100000000000200000200000000000000000200000000000,
100000000000200000100000000000000000200000000000,
100000000000200000200000000000000000200000000000,
100000000000100000000000100000100000000000000000,
100000000000200000200000000000000000200000000000,
100000000000200000100000000000000000200000000000,
100000000000200000200000000000000000200000000000,
100000000000100000000000100000100000000000000000,
100000100000100000100000000000000000000000000000,
100000000000100000200000000000200000100000000000,
100000100000100000100000000000000000000000000000,
100000000000200000100000000000100000200000000000,
500000000000000000000000000000000800000000000000,
200000000000200000000000100000100000200000000000,
500000000000000000000000000000000800000000000000,
200000000000200000000000100000100000200000000000,
100000000000200000000000100000100000200000000000,
100000000000200000100000000000100000200000000000,
100000200000200000100000200000200000100000000000,
300000000000000000000000000000000000000000000000,
#GOGOSTART
100000000000100000000000100000100000200000100000,
000000100000100000200000100000000000200000000000,
100000000000100000000000100000100000200000100000,
000000100000100000200000100000000000000000000000,
100000000000100000000000100000100000200000100000,
000000100000100000200000100000000000200000000000,
100000000000100000000000100000100000200000100000,
000000100000100000200000100000000000000000000000,
#GOGOEND
300000000000000000000000000000000000000000000000,
100000100000200000200000100000100000200000000000,
100000200000100000200000100000000000000000000000,
100000100000200000200000100000100000200000000000,
100000000000100000000000100000100000000000000000,
100000100000200000200000100000100000200000000000,
100000200000100000200000100000000000000000000000,
100000100000200000200000100000100000200000000000,
100000000000100000000000100000100000000000000000,
100000200000200000100000200000200000100000000000,
700000000000000000000000000000000800000000000000,
100000100000200000200000100000100000200000200000,
100000000000100000000000100000100000000000100000,
000000000000000000000000000000000000400000000000,
400000000000000000000000100000100000100000100000,
000000300000000000000000000000000000000000000000,
#END
COURSE:Normal
LEVEL:2
BALLOON:5,11
SCOREINIT:2000
SCOREDIFF:520
#START
#BPMCHANGE 174
#SCROLL 0.8
300000000000000000000000300000000000000000000000,
300000000000000000300000000000000000000000000000,
000000000000000000000000000000000000000000000000,
000000000000000000000000000000000000000000000000,
100000000000000000000000100000000000000000000000,
100000000000000000000000200000000000000000000000,
100000000000000000000000100000000000000000000000,
500000000000000000800000000000000000000000000000,
100000000000000000000000100000000000000000000000,
100000000000000000000000200000000000000000000000,
100000000000000000000000100000000000000000000000,
500000000000000000000000000000000000800000000000,
000000000000000000000000000000000000000000000000,
000000000000000000000000000000000000000000000000,
100000000000000000000000000000000000000000000000,
100000000000000000000000000000000000100000000000,
100000000000000000000000000000000000100000000000,
100000000000000000000000100000000000000000000000,
100000000000000000000000000000000000000000000000,
200000000000000000000000000000000000100000000000,
100000000000000000000000000000000000200000000000,
200000000000000000000000200000000000000000000000,
100000000000100000000000000000000000100000000000,
100000000000000000000000000000000000000000000000,
100000000000100000000000000000000000100000000000,
100000000000000000000000000000000000000000000000,
500000000000000000000000000000800000000000000000,
000000000000100000000000100000000000000000000000,
500000000000000000000000000000800000000000000000,
000000000000100000000000100000000000000000000000,
100000000000000000000000100000000000000000000000,
200000000000000000000000200000000000000000000000,
700000000000000000000000000000800000000000000000,
300000000000000000000000000000000000000000000000,
#GOGOSTART
300000000000000000000000300000000000000000000000,
400000000000000000000000400000000000000000000000,
100000000000000000000000100000000000000000000000,
500000000000000000800000000000000000000000000000,
300000000000000000000000300000000000000000000000,
400000000000000000000000400000000000000000000000,
100000000000000000000000100000000000000000000000,
500000000000000000000000800000000000000000000000,
#GOGOEND
300000000000000000000000000000000000000000000000,
100000000000000000000000100000000000000000000000,
100000000000100000000000100000000000000000000000,
100000000000000000000000100000000000000000000000,
200000000000000000000000200000000000000000000000,
100000000000000000000000100000000000000000000000,
100000000000100000000000100000000000000000000000,
100000000000000000000000100000000000000000000000,
200000000000000000000000200000000000000000000000,
700000000000000000000000000000000000000000000000,
000000000000000000000000000000800000000000000000,
100000000000000000000000100000000000000000000000,
500000000000000000000000000000000000800000000000,
000000000000000000000000000000000000400000000000,
400000000000000000000000300000000000300000000000,
000000300000000000000000000000000000000000000000,
#END
COURSE:Easy
LEVEL:2
BALLOON:3,7
SCOREINIT:2500
SCOREDIFF:720
#START
#BPMCHANGE 174
100000000000000000000000100000000000000000000000,
100000000000000000100000000000000000000000000000,
000000000000000000000000000000000000000000000000,
000000000000000000000000000000000000000000000000,
100000000000000000000000000000000000000000000000,
100000000000000000000000000000000000000000000000,
100000000000000000000000100000000000000000000000,
500000000000000000800000000000000000000000000000,
100000000000000000000000000000000000000000000000,
100000000000000000000000000000000000000000000000,
100000000000000000000000100000000000000000000000,
500000000000000000000000000000000000800000000000,
000000000000000000000000000000000000000000000000,
000000000000000000000000000000000000000000000000,
100000000000000000000000100000000000000000000000,
100000000000000000000000000000000000000000000000,
100000000000000000000000000000000000000000000000,
500000000000000000800000000000000000000000000000,
100000000000000000000000100000000000000000000000,
100000000000000000000000000000000000000000000000,
200000000000000000000000000000000000000000000000,
500000000000000000800000000000000000000000000000,
100000000000000000000000000000000000000000000000,
200000000000000000000000000000000000000000000000,
100000000000000000000000000000000000000000000000,
200000000000000000000000000000000000000000000000,
500000000000000000800000000000000000000000000000,
300000000000000000000000000000000000000000000000,
500000000000000000800000000000000000000000000000,
300000000000000000000000000000000000000000000000,
100000000000000000000000100000000000000000000000,
100000000000000000000000000000000000000000000000,
700000000000000000000000000000800000000000000000,
300000000000000000000000000000000000000000000000,
#GOGOSTART
300000000000000000000000300000000000000000000000,
300000000000000000000000000000000000000000000000,
100000000000000000000000100000000000000000000000,
500000000000000000800000000000000000000000000000,
300000000000000000000000300000000000000000000000,
300000000000000000000000000000000000000000000000,
100000000000000000000000100000000000000000000000,
500000000000000000000000000000000000800000000000,
#GOGOEND
000000000000000000000000000000000000000000000000,
100000000000000000000000100000000000000000000000,
300000000000000000000000000000000000000000000000,
100000000000000000000000100000000000000000000000,
500000000000000000800000000000000000000000000000,
100000000000000000000000100000000000000000000000,
300000000000000000000000000000000000000000000000,
100000000000000000000000100000000000000000000000,
500000000000000000800000000000000000000000000000,
700000000000000000000000000000000000000000000000,
000000000000000000000000000000800000000000000000,
100000000000000000000000100000000000000000000000,
500000000000000000000000000000000000800000000000,
000000000000000000000000000000000000000000000000,
300000000000000000000000600000000000000000000008,
#END