Files
2023-01-17 00:45:18 -05:00

365 lines
14 KiB
Plaintext

//TJADB Project
TITLE:Make debut!
TITLEJA:Make debut!
SUBTITLE:--Spica/Uma Musume Pretty Derby Phase 1
SUBTITLEJA:TVアニメ『ウマ娘 プリティーダービー』OP主題歌より
BPM:90
WAVE:Make debut!.ogg
OFFSET:-1.141
DEMOSTART:64.460
COURSE:Oni
LEVEL:7
BALLOON:15,24
SCOREINIT:2800
SCOREDIFF:0
#START
100000000000000000000000100000000000000000000000,
#MEASURE 5/4
700000000000000000000000800000000000
#BPMCHANGE 180
200000200000200000100000,
#MEASURE 4/4
000000000000000000200000000000200000000000200000,
000000000000000000000000200000200000200000100000,
000000000000200000200000000000200000000000200000,
000000000000000000200000200000200000200000200000,
100000000000200000200000000000000000000000200000,
100000000000200000000000100000000000200000000000,
700000000000000000000000000000000000000000000000,
000000000000000000000000800000000000000000000000,
#GOGOSTART
300000000000200000000000200000000000200000300000,
000000000000200000200000000000200000000000300000,
000000000000000000000000000000000000000000100100,
100000000000100000200000000000100000400000000000,
100000000000200000000000100100100000200000100000,
000000100000200000100000200200100000200000000000,
500000000000000000000000000000000000008000000000,
600000000000000000000000000000000000008000000000,
#GOGOEND
100000000000100000000000100000100000100000000000,
100000100000200000100000000000100000200000000000,
100000000000100000000000100000100000100000000000,
100000100000200000100000000000100000200000000000,
100000000000100000000000100000100000100000000000,
100000100000200000100000000000100000200000000000,
100000000000100000000000100000100000100000000000,
300000000000000000300000000000000000400000000000,
100000100000200000100000100000100100200000100000,
100000100000200000100000000000100000200000000000,
100000100000200000100000100000100100200000100000,
100000100100200000100000000000100000200000000000,
100000100000200000100000100000100100200000100000,
100000100100200000100100100000100000200000000000,
300000000000400000400000000000100000200000100000,
100000100100200000100000100100100100200000000000,
500000000000000000000000000000000000000000000000,
008000000000000000000000000000000000000000000000,
100000000000200000200200100000100000200000200000,
100000000000200000200200100000100000200000200000,
100000000000200000200200100000100000200000200000,
100100100000200000100000000000200000200000100100,
100000000000200000200100100000100000200000200000,
100000000000200000200100100000100000200000200000,
500000000000000000000000000000000000000000000008,
000000000000000000300000000000400000400000600000,
000000000000000000000000000000000000000000008000,
000000000000000000000000200200200200200000
#GOGOSTART
300000,
000000100000200000100100200000100000200000100100,
200000100000200000100000100100100100200000300000,
000000100000200000100100200000100000200000100100,
200000100000200000200200100000100100200000200000,
100000000000200000100000000000100000200000200200,
100100100000200200200000100100100000200200200000,
500000000000000000000000000000000000000000000000,
008000000000000000000000200200200200200000300000,
000000100000200000100100200000100000200000100100,
200000100000200000100000100100100100200000300000,
000000100000200000100100200000100000200000100100,
200000100000200000200200100000100100200200100000,
000000200200100000200000000000100100200200100000,
000000200200100000200000000000100000400000000000,
300000000000100000100000100000100000100100100100,
#GOGOEND
100000000000000000000000000000000000000000000000,
500000000000000000000000000000000000000000000000,
008000000000000000000000000000000000000000000000,
#END
COURSE:Hard
LEVEL:4
BALLOON:13,20
SCOREINIT:4830
SCOREDIFF:0
#START
000000000000000000000000000000000000000000000000,
#MEASURE 5/4
700000000000000000000800000000000000
#BPMCHANGE 180
000000000000000000100000,
#MEASURE 4/4
000000000000000000000000000000000000000000000000,
000000000000000000000000000000000000000000100000,
000000000000000000000000000000000000000000000000,
000000000000000000000000000000000000000000000000,
100000000000200000200000000000000000000000200000,
100000000000200000000000200000000000200000000000,
700000000000000000000000000000000000000000000000,
000000000000000000800000000000000000000000000000,
#GOGOSTART
300000000000200000000000200000000000200000300000,
000000000000200000200000000000200000000000300000,
000000000000000000000000000000000000000000200000,
000000000000000000200000000000000000000000000000,
100000000000200000000000100000100000200000100000,
000000100000200000000000100000100000200000000000,
500000000000000000000000000000000000800000000000,
600000000000000000000000000000000000800000000000,
#GOGOEND
100000000000100000000000100000100000100000000000,
100000000000200000200000000000200000200000000000,
100000000000100000000000100000100000100000000000,
100000100000200000200000000000200000200000000000,
100000000000100000000000100000100000100000000000,
100000000000200000200000000000200000200000000000,
100000000000100000000000100000100000100000000000,
300000000000000000300000000000000000400000000000,
100000000000200000000000100000100000200000000000,
100000100000200000100000000000100000200000000000,
100000000000200000000000100000100000200000000000,
100000100000200000100000000000100000200000000000,
100000000000200000000000100000100000200000000000,
100000100000200000100000000000100000200000000000,
300000000000300000300000000000000000200000200000,
100000000000200000000000100000100000200000000000,
500000000000000000000000000000000000000000000000,
800000000000000000000000000000000000000000000000,
100000000000200000100000100000000000200000000000,
100000000000200000100000100000000000200000000000,
100000000000000000100000100000000000200000000000,
100000100000000000200000000000000000000000000000,
100000000000200000100000100000100000200000000000,
100000000000200000100000100000100000200000000000,
500000000000000000000000000000000000000000000000,
800000000000000000300000000000400000400000600000,
000000000000000000000000000000000000000000800000,
000000000000000000000000200000200000200000
#GOGOSTART
300000,
000000000000200000100000000000100000000000200000,
000000000000200000000000200000200000100000300000,
000000000000200000100000000000100000000000200000,
000000000000200000100000100000100000200000000000,
100000000000200000100000000000100000200000000000,
300000000000400000000000300000000000400000000000,
600000000000000000000000000000000000000000000000,
800000000000000000000000200000200000200000300000,
000000000000200000100000000000100000000000200000,
000000000000200000000000200000100000100000300000,
000000000000200000100000000000100000000000200000,
000000000000200000200000000000100000100000500000,
000000000000000000800000000000200000200000500000,
000000000000000000800000000000000000300000000000,
600000000000000000000000800000000000300000300000,
#GOGOEND
300000000000000000000000000000000000000000000000,
500000000000000000000000000000000000000000000000,
800000000000000000000000000000000000000000000000,
#END
COURSE:Normal
LEVEL:5
BALLOON:8,12,5
SCOREINIT:6730
SCOREDIFF:0
#START
000000000000000000000000000000000000000000000000,
#MEASURE 5/4
700000000000000000000800000000000000
#BPMCHANGE 180
000000000000000000100000,
#MEASURE 4/4
000000000000000000000000000000000000000000000000,
000000000000000000000000000000000000000000100000,
000000000000000000000000000000000000000000000000,
000000000000000000000000000000000000000000000000,
100000000000000000000000000000000000000000000000,
100000000000000000000000100000000000000000000000,
700000000000000000000000000000000000000000000000,
000000000000000000800000000000000000000000000000,
#GOGOSTART
300000000000000000000000000000000000000000300000,
000000000000000000000000000000000000000000600000,
000000000000000000000000000000000000000000800000,
000000000000000000000000000000000000000000000000,
100000000000000000000000200000000000000000100000,
000000000000000000000000200000000000000000000000,
500000000000000000000000000000000000800000000000,
700000000000000000000000000000800000000000000000,
#GOGOEND
100000000000100000000000100000000000100000000000,
100000000000000000000000000000000000200000000000,
100000000000100000000000100000000000100000000000,
100000100000000000100000000000200000000000000000,
100000000000100000000000100000000000100000000000,
100000000000000000000000000000000000200000000000,
100000000000100000000000100000000000100000000000,
300000000000000000300000000000000000300000000000,
100000000000100000000000100000100000100000000000,
100000000000200000000000000000000000200000000000,
100000000000100000000000100000100000100000000000,
100000200000000000200000000000200000000000000000,
100000000000100000000000100000100000100000000000,
100000000000200000200000000000000000200000000000,
300000000000300000300000000000000000200000000000,
100000000000200000000000100000100000200000000000,
500000000000000000000000000000000000000000000000,
800000000000000000000000000000000000000000000000,
100000000000100000100000100000000000200000000000,
100000000000100000100000100000000000200000000000,
100000000000000000100000100000000000200000000000,
100000100000000000100000000000000000000000000000,
100000000000100000100000100000000000200000000000,
100000000000100000100000100000000000200000000000,
500000000000000000000000000000000000000000000000,
800000000000000000300000000000300000300000600000,
000000000000000000000000000000000000000000800000,
000000000000000000000000100000100000100000
#GOGOSTART
300000,
000000000000000000100000000000100000000000200000,
000000000000000000000000100000100000100000300000,
000000000000000000100000000000100000000000200000,
000000000000000000000000200000000000200000000000,
100000000000100000100000000000000000200000000000,
100000000000100000000000200000000000200000000000,
500000000000000000000000000000000000000000000000,
800000000000000000000000100000100000100000300000,
000000000000000000100000000000100000000000200000,
000000000000000000000000100000100000100000300000,
000000000000000000100000000000100000000000200000,
000000000000000000000000000000100000000000500000,
000000000000000000800000000000100000000000500000,
000000000000000000800000000000000000300000000000,
600000000000000000000000800000000000300000300000,
#GOGOEND
300000000000000000000000000000000000000000000000,
500000000000000000000000000000000000000000000000,
800000000000000000000000000000000000000000000000,
#END
COURSE:Easy
LEVEL:3
BALLOON:6,10,4
SCOREINIT:12540
SCOREDIFF:0
#START
000000000000000000000000000000000000000000000000,
#MEASURE 5/4
700000000000000000000800000000000000
#BPMCHANGE 180
000000000000000000100000,
#MEASURE 4/4
000000000000000000000000000000000000000000000000,
000000000000000000000000000000000000000000100000,
000000000000000000000000000000000000000000000000,
000000000000000000000000000000000000000000000000,
100000000000000000000000000000000000000000000000,
100000000000000000000000000000000000000000000000,
700000000000000000000000000000000000000000000000,
000000000000000000800000000000000000000000000000,
#GOGOSTART
300000000000000000000000000000000000000000300000,
000000000000000000000000000000000000000000600000,
000000000000000000000000000000000000000000800000,
000000000000000000000000000000000000000000000000,
100000000000000000000000000000000000000000100000,
000000000000000000000000000000000000000000000000,
500000000000000000000000000000000000800000000000,
700000000000000000000000000000800000000000000000,
#GOGOEND
100000000000000000000000100000000000100000000000,
100000000000000000000000000000000000000000000000,
100000000000000000000000100000000000100000000000,
100000000000000000000000000000000000000000000000,
100000000000000000000000100000000000100000000000,
100000000000000000000000000000000000000000000000,
100000000000000000000000100000000000100000000000,
300000000000000000000000000000000000000000000000,
100000000000100000000000100000000000100000000000,
100000000000000000000000000000000000000000000000,
100000000000100000000000100000000000100000000000,
100000000000000000000000000000000000000000000000,
100000000000100000000000100000000000100000000000,
100000000000000000000000000000000000000000000000,
300000000000000000000000000000000000000000000000,
100000000000100000000000100000000000000000000000,
500000000000000000000000000000000000000000000000,
800000000000000000000000000000000000000000000000,
100000000000100000000000100000000000000000000000,
100000000000100000000000100000000000000000000000,
200000000000000000000000200000000000000000000000,
200000000000000000000000000000000000000000000000,
100000000000100000000000100000000000000000000000,
100000000000100000000000100000000000000000000000,
500000000000000000000000000000000000000000000000,
800000000000000000000000000000000000000000600000,
000000000000000000000000000000000000000000800000,
000000000000000000000000000000000000000000
#GOGOSTART
300000,
000000000000000000100000000000100000000000100000,
000000000000000000000000000000000000000000300000,
000000000000000000100000000000100000000000100000,
000000000000000000000000000000000000000000000000,
100000000000000000000000000000000000000000000000,
100000000000100000000000100000000000000000000000,
500000000000000000000000000000000000000000000000,
800000000000000000000000000000000000000000300000,
000000000000000000100000000000100000000000100000,
000000000000000000000000000000000000000000300000,
000000000000000000100000000000100000000000100000,
000000000000000000000000000000000000000000500000,
000000000000000000800000000000000000000000500000,
000000000000000000800000000000000000000000000000,
600000000000000000000000800000000000000000000000,
#GOGOEND
300000000000000000000000000000000000000000000000,
500000000000000000000000000000000000000000000000,
800000000000000000000000000000000000000000000000,
#END