forked from ESE/ESE
406 lines
16 KiB
Plaintext
406 lines
16 KiB
Plaintext
//TJADB Project
|
|
TITLE:Mazinger Z
|
|
TITLEJA:マジンガーZ
|
|
SUBTITLE:--Ichiro Mizuki/Mazinger Z
|
|
SUBTITLEJA:マジンガーZ
|
|
BPM:180
|
|
WAVE:Mazinger Z.ogg
|
|
OFFSET:-2.516
|
|
DEMOSTART:11.675
|
|
|
|
COURSE:Oni
|
|
LEVEL:5
|
|
SCOREINIT:760
|
|
SCOREDIFF:180
|
|
|
|
|
|
#START
|
|
|
|
|
|
000000000000000000000000000000000000000000000000,
|
|
100000100000000000200000000000000000000000000000,
|
|
100000100000000000200000000000000000000000000000,
|
|
100000100000000000200000000000200000000000200000,
|
|
100000100000200000100000100000200000000000000000,
|
|
300000000000000000000000300000000000000000000000,
|
|
100000100000000000300000000000000000000000000000,
|
|
100000100100000000200000000000000000000000000000,
|
|
100000100100000000200000000000000000000000000000,
|
|
100000100000200000100000100000000000100000100000,
|
|
000000000000000000000000000000000000000000000000,
|
|
100000100100100000200000000000000000000000000000,
|
|
100000100100100000200000000000000000000000000000,
|
|
100000100100100000200000000000000000100000000000,
|
|
300000000000000000000000000000000000000000000000,
|
|
100000100000200000200000100100100000200000200000,
|
|
100000100000200000200000100100100000200000200000,
|
|
500000000000000000000000000000000000000000000000,
|
|
000000000000000000000008000000000000000000000000,
|
|
100000100000200000200000100100100000200000200000,
|
|
100000100000200000100000100000200000100000100000,
|
|
300000000000000000000000000000000000000000000000,
|
|
100000100000000000100000000000100000000000100000,
|
|
|
|
#GOGOSTART
|
|
100000100100100000200000000000000000000000000000,
|
|
100000100100100000200000000000000000000000000000,
|
|
100000100000200000100000100000200000100000200000,
|
|
500000000000000000000000000000000008000000000000,
|
|
100000100100100000200000000000000000000000000000,
|
|
100000100100100000200000000000000000000000000000,
|
|
100000100000200000100000100000200000100000200000,
|
|
500000000000000000000000000000000000000000000000,
|
|
000000000000000000000008000000000000000000000000,
|
|
|
|
#GOGOEND
|
|
100000100000000000300000000000000000000000000000,
|
|
100000100000000000300000000000000000000000000000,
|
|
000000000000100000000000100000000000100000000000,
|
|
500000000000000000000000000000000000000008000000,
|
|
300000000000000000000000000000000000000000000000,
|
|
100000100000000000200000000000000000000000000000,
|
|
100000100000000000200000000000000000000000000000,
|
|
100000100000000000200000000000000000000000000000,
|
|
100000100000000000200000000000000000000000000000,
|
|
100000100000000000200000000000200000000000200000,
|
|
100000100000200000100000100000200000000000000000,
|
|
300000000000000000000000300000000000000000000000,
|
|
100000100000000000300000000000000000000000000000,
|
|
100000100100000000200000000000000000000000000000,
|
|
100000100100000000200000000000000000000000000000,
|
|
100000100000200000100000200000000000100000100000,
|
|
000000000000000000000000000000000000000000000000,
|
|
100000100100200000200000000000000000000000000000,
|
|
100000100100200000200000000000000000000000000000,
|
|
100000100100200000200000000000000000100000000000,
|
|
300000000000000000000000000000000000000000000000,
|
|
100000100000200000200000100100100000200000200000,
|
|
100000100000200000200000100100100000200000200000,
|
|
500000000000000000000000000000000000000000000000,
|
|
000000000000000000000008000000000000000000000000,
|
|
100000100000200000200000100100100000200000200000,
|
|
100000100000200000100000100000200000100000100000,
|
|
300000000000000000000000000000000000000000000000,
|
|
100000100000000000100000000000100000000000100000,
|
|
|
|
#GOGOSTART
|
|
100000100100100000200000000000000000000000000000,
|
|
100000100100100000200000000000000000000000000000,
|
|
100000100000200000100000100000200000100000200000,
|
|
500000000000000000000000000000000008000000000000,
|
|
100000100100100000200000000000000000000000000000,
|
|
100000100100100000200000000000000000000000000000,
|
|
100000100000200000100000100000200000100000200000,
|
|
500000000000000000000000000000000000000000000000,
|
|
000000000000000000000008000000000000000000000000,
|
|
|
|
#GOGOEND
|
|
100000100000000000300000000000000000000000000000,
|
|
100000100000000000300000000000000000000000000000,
|
|
000000000000100000000000100000000000100000000000,
|
|
500000000000000000000000000000000000000008000000,
|
|
300000000000000000000000000000000000000000000000,
|
|
100000100000000000100000000000100100100000200000,
|
|
100000100000200000100000100000500000000000000000,
|
|
000000000000000000000000000000000008000000000000,
|
|
300000300000000000000000000000000000000000000000,
|
|
|
|
|
|
#END
|
|
|
|
|
|
COURSE:Hard
|
|
LEVEL:5
|
|
SCOREINIT:400
|
|
SCOREDIFF:180
|
|
|
|
|
|
#START
|
|
|
|
|
|
000000000000000000000000000000000000000000000000,
|
|
100000100000000000200000000000000000000000000000,
|
|
100000100000000000200000000000000000000000000000,
|
|
100000100000000000200000000000200000000000200000,
|
|
100000100000200000100000100000200000000000000000,
|
|
300000000000000000000000300000000000000000000000,
|
|
100000100000000000300000000000000000000000000000,
|
|
100000100000000000200000000000000000000000000000,
|
|
100000100000000000200000000000000000000000000000,
|
|
100000100000100000100000100000000000100000100000,
|
|
000000000000000000000000000000000000000000000000,
|
|
100000100000100000200000000000000000000000000000,
|
|
100000100000100000200000000000000000000000000000,
|
|
100000100000100000200000000000000000100000000000,
|
|
300000000000000000000000000000000000000000000000,
|
|
100000100000200000200000100000100000200000200000,
|
|
100000100000200000200000100000100000200000200000,
|
|
500000000000000000000000000000000000000000000000,
|
|
000000000000000000000080000000000000000000000000,
|
|
100000100000200000200000100000100000200000200000,
|
|
100000100000200000200000100000100000100000200000,
|
|
300000000000000000000000000000000000000000000000,
|
|
100000100000000000100000000000100000000000000000,
|
|
|
|
#GOGOSTART
|
|
100000100100100000200000000000000000000000000000,
|
|
100000100100100000200000000000000000000000000000,
|
|
100000100000200000100000100000200000100000100000,
|
|
500000000000000000000000000000000080000000000000,
|
|
100000100100100000200000000000000000000000000000,
|
|
100000100100100000200000000000000000000000000000,
|
|
100000100000200000100000100000200000100000100000,
|
|
500000000000000000000000000000000000000000000000,
|
|
000000000000000000000000000000000080000000000000,
|
|
|
|
#GOGOEND
|
|
100000100000000000300000000000000000000000000000,
|
|
100000100000000000300000000000000000000000000000,
|
|
000000000000100000000000100000000000100000000000,
|
|
500000000000000000000000000000000000000008000000,
|
|
300000000000000000000000000000000000000000000000,
|
|
100000100000000000200000000000000000000000000000,
|
|
100000100000000000200000000000000000000000000000,
|
|
100000100000000000200000000000000000000000000000,
|
|
100000100000000000200000000000000000000000000000,
|
|
100000100000000000200000000000200000000000200000,
|
|
100000100000200000100000100000200000000000000000,
|
|
300000000000000000000000300000000000000000000000,
|
|
100000100000000000300000000000000000000000000000,
|
|
100000100000000000200000000000000000000000000000,
|
|
100000100000000000200000000000000000000000000000,
|
|
100000100000200000100000200000000000100000100000,
|
|
000000000000000000000000000000000000000000000000,
|
|
100000100000200000200000000000000000000000000000,
|
|
100000100000200000200000000000000000000000000000,
|
|
100000100000200000200000000000000000100000000000,
|
|
300000000000000000000000000000000000000000000000,
|
|
100000100000200000200000100000100000200000200000,
|
|
100000100000200000200000100000100000200000200000,
|
|
500000000000000000000000000000000000000000000000,
|
|
000000000000000000000080000000000000000000000000,
|
|
100000100000200000200000100000100000200000200000,
|
|
100000100000200000200000100000200000100000200000,
|
|
300000000000000000000000000000000000000000000000,
|
|
100000100000000000100000000000100000000000000000,
|
|
|
|
#GOGOSTART
|
|
100000100100100000200000000000000000000000000000,
|
|
100000100100100000200000000000000000000000000000,
|
|
100000100000200000100000100000200000100000100000,
|
|
500000000000000000000000000000000080000000000000,
|
|
100000100100100000200000000000000000000000000000,
|
|
100000100100100000200000000000000000000000000000,
|
|
100000100000200000100000100000200000100000100000,
|
|
500000000000000000000000000000000000000000000000,
|
|
000000000000000000000000000000000080000000000000,
|
|
|
|
#GOGOEND
|
|
100000100000000000300000000000000000000000000000,
|
|
100000100000000000300000000000000000000000000000,
|
|
000000000000100000000000100000000000100000000000,
|
|
500000000000000000000000000000000000000080000000,
|
|
300000000000000000000000000000000000000000000000,
|
|
100000100000000000100000000000100100100000200000,
|
|
100000100000200000100000100000500000000000000000,
|
|
000000000000000000000000000000000080000000000000,
|
|
300000300000000000000000000000000000000000000000,
|
|
|
|
|
|
#END
|
|
|
|
|
|
COURSE:Normal
|
|
LEVEL:6
|
|
SCOREINIT:440
|
|
SCOREDIFF:180
|
|
|
|
|
|
#START
|
|
|
|
|
|
000000000000000000000000000000000000000000000000,
|
|
100000100000000000200000000000000000000000000000,
|
|
100000100000000000200000000000000000000000000000,
|
|
100000100000000000200000000000000000000000000000,
|
|
100000200000100000200000100000200000000000000000,
|
|
300000000000000000000000000000000000000000000000,
|
|
300000000000000000000000000000000000000000000000,
|
|
100000000000100000100000000000000000000000000000,
|
|
100000000000100000100000000000000000000000000000,
|
|
100000000000100000100000100000000000100000100000,
|
|
000000000000000000000000000000000000000000000000,
|
|
100000100000000000200000000000000000000000000000,
|
|
100000100000000000200000000000000000000000000000,
|
|
100000100000000000200000000000000000100000000000,
|
|
500000000000000000000080000000000000000000000000,
|
|
100000100000100000000000100100100000100000000000,
|
|
100000100000100000000000100100100000100000000000,
|
|
500000000000000000000000000000000000000000000000,
|
|
000000000000000000000080000000000000000000000000,
|
|
100000100000100000000000100100100000100000000000,
|
|
100000100000100000100000100000100100100000000000,
|
|
300000000000000000000000000000000000000000000000,
|
|
100000100000000000100000000000100000000000000000,
|
|
#GOGOSTART
|
|
100000200000100000200000000000000000000000000000,
|
|
100000200000100000200000000000000000000000000000,
|
|
100000200000100000200000100000200000000000000000,
|
|
500000000000000000000000000000000080000000000000,
|
|
100000100000200000200000000000000000000000000000,
|
|
100000100000200000200000000000000000000000000000,
|
|
100000100000200000200000100000100000000000000000,
|
|
500000000000000000000000000000000000000000000000,
|
|
000000000000000000000080000000000000000000000000,
|
|
#GOGOEND
|
|
100000100000000000300000000000000000000000000000,
|
|
100000100000000000300000000000000000000000000000,
|
|
000000000000100000000000100000000000100000000000,
|
|
500000000000000000000000000000000008000000000000,
|
|
300000000000000000000000000000000000000000000000,
|
|
100000100000000000200000000000000000000000000000,
|
|
100000100000000000200000000000000000000000000000,
|
|
100000100000000000200000000000000000000000000000,
|
|
100000100000000000200000000000000000000000000000,
|
|
100000100000000000200000000000000000000000000000,
|
|
100000200000100000200000100000200000000000000000,
|
|
300000000000000000000000000000000000000000000000,
|
|
300000000000000000000000000000000000000000000000,
|
|
100000000000100000200000000000000000000000000000,
|
|
100000000000100000200000000000000000000000000000,
|
|
100000000000100000100000200000000000100000200000,
|
|
000000000000000000000000000000000000000000000000,
|
|
100000100000000000200000000000000000000000000000,
|
|
100000100000000000200000000000000000000000000000,
|
|
100000100000000000200000000000000000100000000000,
|
|
500000000000000000000080000000000000000000000000,
|
|
100000100000100000000000100100100000100000000000,
|
|
100000100000100000000000100100100000100000000000,
|
|
500000000000000000000000000000000000000000000000,
|
|
000000000000000000000080000000000000000000000000,
|
|
100000100000100000000000100100100000100000000000,
|
|
100000100000100000100000100000100100100000000000,
|
|
300000000000000000000000000000000000000000000000,
|
|
100000100000000000100000000000100000000000000000,
|
|
#GOGOSTART
|
|
100000200000100000200000000000000000000000000000,
|
|
100000200000100000200000000000000000000000000000,
|
|
100000200000100000200000100000200000000000000000,
|
|
500000000000000000000000000000000080000000000000,
|
|
100000100000200000200000000000000000000000000000,
|
|
100000100000200000200000000000000000000000000000,
|
|
100000100000200000200000100000100000000000000000,
|
|
500000000000000000000000000000000000000000000000,
|
|
000000000000000000000080000000000000000000000000,
|
|
#GOGOEND
|
|
100000100000000000300000000000000000000000000000,
|
|
100000100000000000300000000000000000000000000000,
|
|
000000000000100000000000100000000000100000000000,
|
|
500000000000000000000000000000000008000000000000,
|
|
300000000000000000000000000000000000000000000000,
|
|
100000100000000000100000000000100000000000100000,
|
|
100000200000100000200000100000500000000000000000,
|
|
000000000000000000000000000000000080000000000000,
|
|
300000300000000000000000000000000000000000000000,
|
|
|
|
|
|
#END
|
|
|
|
|
|
COURSE:Easy
|
|
LEVEL:4
|
|
SCOREINIT:240
|
|
SCOREDIFF:160
|
|
|
|
|
|
#START
|
|
|
|
|
|
000000000000000000000000000000000000000000000000,
|
|
100000000000000000200000000000000000000000000000,
|
|
100000000000000000200000000000000000000000000000,
|
|
100000000000000000200000000000000000000000000000,
|
|
100000000000000000200000000000000000000000000000,
|
|
100000000000000000000000000000000000000000000000,
|
|
100000000000000000000000000000000000000000000000,
|
|
100000000000100000000000000000000000000000000000,
|
|
100000000000100000000000000000000000000000000000,
|
|
100000000000100000000000100000000000100000000000,
|
|
100000000000000000000000000000000000000000000000,
|
|
100000000000100000000000000000000000000000000000,
|
|
100000000000100000000000000000000000000000000000,
|
|
100000000000100000000000100000000000100000000000,
|
|
100000000000000000000000000000000000000000000000,
|
|
100000000000100000000000100000000000000000000000,
|
|
100000000000100000000000100000000000000000000000,
|
|
500000000000000000000000000000000000000000000000,
|
|
000000000000000000000080000000000000000000000000,
|
|
100000000000100000000000100000000000000000000000,
|
|
100000000000100000000000100000000000000000000000,
|
|
300000000000000000000000000000000000000000000000,
|
|
100000000000000000100000000000100000000000000000,
|
|
#GOGOSTART
|
|
100000000000200000000000100000000000000000000000,
|
|
100000000000200000000000100000000000000000000000,
|
|
100000000000200000000000100000000000000000000000,
|
|
500000000000000000000000000000000080000000000000,
|
|
100000000000200000000000100000000000000000000000,
|
|
100000000000200000000000100000000000000000000000,
|
|
100000000000200000000000100000000000000000000000,
|
|
500000000000000000000000000000000000000000000000,
|
|
000000000000000000000080000000000000000000000000,
|
|
#GOGOEND
|
|
100000000000000000300000000000000000000000000000,
|
|
100000000000000000300000000000000000000000000000,
|
|
000000000000100000000000100000000000100000000000,
|
|
500000000000000000000000000000000008000000000000,
|
|
300000000000000000000000000000000000000000000000,
|
|
100000000000000000200000000000000000000000000000,
|
|
100000000000000000200000000000000000000000000000,
|
|
100000000000000000200000000000000000000000000000,
|
|
100000000000000000200000000000000000000000000000,
|
|
100000000000000000200000000000000000000000000000,
|
|
100000000000000000200000000000000000000000000000,
|
|
100000000000000000000000000000000000000000000000,
|
|
100000000000000000000000000000000000000000000000,
|
|
100000000000100000000000000000000000000000000000,
|
|
100000000000100000000000000000000000000000000000,
|
|
100000000000100000000000100000000000100000000000,
|
|
100000000000000000000000000000000000000000000000,
|
|
100000000000100000000000000000000000000000000000,
|
|
100000000000100000000000000000000000000000000000,
|
|
100000000000100000000000100000000000100000000000,
|
|
100000000000000000000000000000000000000000000000,
|
|
100000000000100000000000100000000000000000000000,
|
|
100000000000100000000000100000000000000000000000,
|
|
500000000000000000000000000000000000000000000000,
|
|
000000000000000000000080000000000000000000000000,
|
|
100000000000100000000000100000000000000000000000,
|
|
100000000000100000000000100000000000000000000000,
|
|
300000000000000000000000000000000000000000000000,
|
|
100000000000000000100000000000100000000000000000,
|
|
#GOGOSTART
|
|
100000000000200000000000100000000000000000000000,
|
|
100000000000200000000000100000000000000000000000,
|
|
100000000000200000000000100000000000000000000000,
|
|
500000000000000000000000000000000080000000000000,
|
|
100000000000200000000000100000000000000000000000,
|
|
100000000000200000000000100000000000000000000000,
|
|
100000000000200000000000100000000000000000000000,
|
|
500000000000000000000000000000000000000000000000,
|
|
000000000000000000000080000000000000000000000000,
|
|
#GOGOEND
|
|
100000000000000000300000000000000000000000000000,
|
|
100000000000000000300000000000000000000000000000,
|
|
000000000000100000000000100000000000100000000000,
|
|
500000000000000000000000000000000008000000000000,
|
|
300000000000000000000000000000000000000000000000,
|
|
100000000000000000000000100000000000000000000000,
|
|
100000000000100000000000500000000000000000000000,
|
|
000000000000000000000000000000000080000000000000,
|
|
300000000000000000000000000000000000000000000000,
|
|
|
|
|
|
#END
|
|
|