Files
2023-06-15 19:15:39 -05:00

286 lines
11 KiB
Plaintext

//TJADB Project
TITLE:Midnight Dekaranger
TITLEJA:ミッドナイト デカレンジャー
SUBTITLE:--Morinoki Children Choir/Tokusou Sentai Dekaranger
BPM:186
WAVE:Midnight Dekaranger.ogg
OFFSET:-1.335
DEMOSTART:46.475
COURSE:Oni
LEVEL:5
#START
#GOGOSTART
100000001000000000001000100000000000100000001000,
000000001000100000000000100000000000100000000000,
100000001000000000001000100000000000100000001000,
000000001000100000000000100000000000100000000000,
#GOGOEND
200000002000200000002000200000000000200000000000,
200000002000200000000000200020002000200000000000,
100000001000000000001000000000001000100000000000,
100000001000100000001000200000000000000000000000,
100000001000100000001000200000000000000000000000,
100000001000100000001000200000000000100000002000,
000000000000000000000000100000001000100000000000,
200000000000200000000000200020002000200000003000,
000000000000000000000000000000000000000000000000,
100010001000100000001000200000000000200000000000,
100010001000100000001000200000000000000000000000,
200020002000200000000000200020002000200000000000,
100000001000100000001000000000002000200000000000,
100000001000100000001000200000000000200000000000,
100000001000100000001000200000000000000000000000,
100000001000100000001000200000000000100000002000,
000000000000000000000000100000001000100000000000,
200000000000200000000000200020002000200000003000,
000000000000000000000000100000001000100000000000,
200020002000200000000000200020002000200000000000,
100000001000100000002000200000000000000000000000,
100000000000000000001000100000000000200000000000,
100000000000000000001000100000000000000000000000,
100000000000100000000000100000000000100000001000,
000000002000200000002000200000000000200000000000,
100000001000100000001000000000000000300000000000,
200000002000200000002000000000000000400000000000,
100010001000100000000000200020002000200000000000,
100000001000100000001000000000000000300000000000,
100000001000000010000000100000001000000010000000,
300000000000000000000000000000004000000000000000,
#GOGOSTART
100000001000000000001000100000000000100000001000,
000000001000100000000000100000000000100000000000,
100000000000000000500000000000000000000000000000,
000000000000000000000000000000000008000000000000,
100000001000100000001000100010001000200000000000,
100000001000100000001000100010001000200000000000,
200020002000200000000000200020002000200000000000,
100000001000100000001000000000002000200000000000,
100000001000000000001000100000000000100000001000,
000000001000100000000000100000000000100000000000,
100000000000000000500000000000000000000000000000,
000000000000000000000000000000000008000000000000,
300000000000300000000000300000000000000000003000,
000000000000000000000000300000000000300000000000,
300000000000000000600000000000000000000000000000,
000000000000000000000008000000000000000000000000,
#GOGOEND
#END
COURSE:Hard
LEVEL:3
SCOREINIT:1120
SCOREDIFF:260
#START
#GOGOSTART
100000001000000000001000100000000000100000001000,
000000001000100000000000100000000000000000000000,
100000001000000000001000100000000000100000001000,
000000001000100000000000100000000000000000000000,
#GOGOEND
300000000000000000000000200000000000000000000000,
100000000000100000000000200000000000000000000000,
100000001000000000001000000000000000000000000000,
100000000000100000000000200000000000000000000000,
100000001000100000000000200000000000000000000000,
100000000000100000000000200000000000000000000000,
100000001000100000000000200000000000000000000000,
200000000000200000000000200000000000000000003000,
000000000000000000000000000000000000000000000000,
100000001000100000000000200000000000000000000000,
100000001000100000000000200000000000000000000000,
100000001000100000000000200000000000000000000000,
100000001000100000000000200000000000000000000000,
100000000000100000000000200000000000000000000000,
100000001000100000000000200000000000000000000000,
100000000000100000000000200000000000000000000000,
100000001000100000000000200000000000000000000000,
200000000000200000000000200000000000000000003000,
000000000000000000000000100000000000000000000000,
100000001000100000000000200000000000000000000000,
100000001000100000000000200000000000000000000000,
100000000000200000000000100000000000200000000000,
100000000000200000000000000000002000200000000000,
100000000000200000000000100000000000200000000000,
100000000000200000000000000000002000200000000000,
100000000000100000000000000000000000300000000000,
100000000000100000000000000000000000300000000000,
100000000000100000000000200000000000200000000000,
300000000000000000000000300000000000000000000000,
100000001000000010000000100000001000000010000000,
100000000000000000000000300000000000000000000000,
#GOGOSTART
100000001000000000001000100000000000100000001000,
000000001000100000000000100000000000100000000000,
500000000000000000000000000000000000000000000000,
000000000000000000000000000000008000000000000000,
100000001000100000000000200000000000000000000000,
100000001000100000000000200000000000000000000000,
100000000000100000000000200000000000000000000000,
100000000000100000001000000000000000000000000000,
100000001000000000001000100000000000100000001000,
000000001000100000000000100000000000100000000000,
500000000000000000000000000000000000000000000000,
000000000000000000000000000000008000000000000000,
300000000000300000000000300000000000000000003000,
000000000000000000000000300000000000300000000000,
600000000000000000000000000000000000000000000000,
000000000000000000008000000000000000000000000000,
#GOGOEND
#END
COURSE:Normal
LEVEL:2
SCOREINIT:1270
SCOREDIFF:520
#START
#GOGOSTART
100000000000000000001000000000000000100000000000,
000000001000000000000000100000000000000000000000,
100000000000000000001000000000000000100000000000,
000000001000000000000000100000000000000000000000,
#GOGOEND
100000000000000000000000200000000000000000000000,
100000000000000000000000200000000000000000000000,
100000000000000000000000000000000000000000000000,
100000000000100000000000200000000000000000000000,
100000000000000000000000200000000000000000000000,
100000000000100000000000200000000000000000000000,
100000000000000000000000200000000000000000000000,
100000000000000000000000100000000000000000000000,
300000000000000000000000000000000000200000000000,
100000000000000000000000100000000000000000000000,
100000000000100000000000100000000000000000000000,
100000000000000000000000100000000000000000000000,
100000000000100000000000100000000000000000000000,
100000000000100000000000200000000000000000000000,
100000000000000000000000200000000000000000000000,
100000000000100000000000200000000000000000000000,
100000000000000000000000200000000000000000000000,
100000000000000000000000100000000000000000000000,
300000000000000000000000000000000000200000000000,
100000000000000000000000100000000000000000000000,
100000000000100000000000100000000000000000000000,
100000000000000000000000000000000000200000000000,
100000000000000000000000000000000000200000000000,
100000000000000000000000000000000000200000000000,
100000000000200000000000100000000000000000000000,
100000000000000000000000000000000000200000000000,
100000000000000000000000000000000000200000000000,
100000000000000000000000000000000000200000000000,
100000000000200000000000100000000000000000000000,
100000000000000000000000100000000000000000000000,
100000000000000000000000300000000000000000000000,
#GOGOSTART
100000000000000000001000000000000000100000000000,
000000001000000000000000100000000000000000000000,
500000000000000000000000000000000000000000008000,
000000000000000000000000000000000000000000000000,
100000000000100000000000200000000000000000000000,
100000000000100000000000200000000000000000000000,
100000000000100000000000200000000000000000000000,
100000000000100000000000200000000000000000000000,
100000000000000000001000000000000000100000000000,
000000001000000000000000100000000000000000000000,
500000000000000000000000000000000000000000000000,
000000000000000000000000000000008000000000000000,
100000000000100000000000100000000000000000000000,
000000000000000000000000300000000000300000000000,
600000000000000000000000000000000000000000000000,
000000000000000000008000000000000000000000000000,
#GOGOEND
#END
COURSE:Easy
LEVEL:2
SCOREINIT:1500
SCOREDIFF:930
#START
#GOGOSTART
100000000000000000001000000000000000100000000000,
000000000000000000000000100000000000000000000000,
100000000000000000001000000000000000100000000000,
000000000000000000000000100000000000000000000000,
#GOGOEND
100000000000000000000000000000000000000000000000,
200000000000000000000000000000000000000000000000,
100000000000000000000000000000000000000000000000,
100000000000000000000000100000000000000000000000,
100000000000000000000000000000000000000000000000,
100000000000000000000000100000000000000000000000,
100000000000000000000000000000000000000000000000,
100000000000000000000000000000000000000000000000,
300000000000000000000000000000000000000000000000,
100000000000000000000000100000000000000000000000,
100000000000000000000000100000000000000000000000,
100000000000000000000000100000000000000000000000,
100000000000100000000000100000000000000000000000,
100000000000000000000000100000000000000000000000,
100000000000000000000000000000000000000000000000,
100000000000000000000000100000000000000000000000,
100000000000000000000000000000000000000000000000,
100000000000000000000000000000000000000000000000,
300000000000000000000000000000000000000000000000,
100000000000000000000000100000000000000000000000,
100000000000100000000000100000000000000000000000,
100000000000000000000000200000000000000000000000,
100000000000000000000000200000000000000000000000,
100000000000000000000000200000000000000000000000,
100000000000000000000000000000000000000000000000,
100000000000000000000000000000000000100000000000,
100000000000000000000000000000000000100000000000,
100000000000000000000000100000000000000000000000,
100000000000000000000000000000000000000000000000,
500000000000000000000000000000000000000000008000,
000000000000000000000000000000000000000000000000,
#GOGOSTART
100000000000000000001000000000000000100000000000,
000000000000000000000000100000000000000000000000,
500000000000000000000000000000000000000000000000,
000000000000000000008000000000000000000000000000,
100000000000000000000000200000000000000000000000,
100000000000000000000000200000000000000000000000,
100000000000000000000000000000000000000000000000,
100000000000000000000000000000000000000000000000,
100000000000000000001000000000000000100000000000,
000000000000000000000000100000000000000000000000,
500000000000000000000000000000000000000000000000,
000000000000000000008000000000000000000000000000,
100000000000000000000000100000000000000000000000,
000000000000000000000000300000000000000000000000,
600000000000000000000000000000000000000000000000,
000000000000000000008000000000000000000000000000,
#GOGOEND
#END