Files
2023-06-15 19:05:10 -05:00

300 lines
3.6 KiB
Plaintext
Raw Permalink Blame History

This file contains ambiguous Unicode characters
This file contains Unicode characters that might be confused with other characters. If you think that this is intentional, you can safely ignore this warning. Use the Escape button to reveal them.
//TJADB Project
TITLE:Mirai Connection
TITLEJA:未来コネクション
SUBTITLE:--ЯeaL/Pokémon the Series: Sun & Moon
SUBTITLEJA:テレビアニメ「ポケットモンスター サン&ムーン」より
BPM:143
WAVE:Mirai Connection.ogg
OFFSET:-1.789
DEMOSTART:42.065
COURSE:Oni
LEVEL:7
BALLOON:17
SCOREINIT:790
SCOREDIFF:200
#START
,
#GOGOSTART
2011202010102020,
11221210,
2011202010102020,
11221220,
11122210,
500000000000000000000000000000000008000000100100,
#GOGOEND
10202120,
1000201011202000,
10202120,
1022202010202000,
10202120,
1000201011202000,
30203022,
3000300030222022,
11011012,
0022102010222020,
11011012,
0020002000102220,
1010201020112010,
1011201020112010,
1011201120112070,
0008,
4000000000112000,
#GOGOSTART
1020102210201022,
1022102011201020,
1022102020221020,
1022102020221020,
500000000000000000000000000000000008000000100000,
500000000000000000000000000000000008000000100100,
1010202210102022,
1022201000201111,
1020102210201022,
1022102011201020,
1022102020221020,
1022102020221020,
500000000000000000000000000000000008000000100000,
500000000000000000000000000000000008000000100100,
1010202210102022,
1022201000404040,
#GOGOEND
600008000000400000600008000000400000600000000000,
000000000000000000000000000000000008000000100100,
11221122,
3000000000112000,
#GOGOSTART
1001201011112020,
1110202010102000,
1001201011112020,
1110202010102000,
3003003000000000,
#GOGOEND
#END
COURSE:Hard
LEVEL:4
BALLOON:11,9,9
SCOREINIT:900
SCOREDIFF:270
#START
,
#GOGOSTART
10101120,
11112220,
10101120,
11112220,
500000000000000000000000000000000000000000000008,
,
#GOGOEND
1202,
1202,
1202,
10201120,
1202,
1202,
33,
3330,
11011012,
02020000,
11011012,
02020000,
10101122,
10101122,
10101127,
0008,
4,//24
#GOGOSTART
10201022,
10210021,
00210021,
00210222,
500000000000000000000000000000000008000000000000,
3,
11221122,
30330330,
10201022,
10210021,
00210021,
00210222,
500000000000000000000000000000000008000000000000,
3,
11221122,
30330333,//40
#GOGOEND
600000000000000000000000000000000008000000000000,
,
11221122,
30330223,//44
#GOGOSTART
30303002,
7008,
00303002,
7008,
3003003000000000,//49
#GOGOEND
,
,
#END
COURSE:Normal
LEVEL:3
BALLOON:6,6,6
#START
,//1
#GOGOSTART
11,
1122,
11,
1122,
500000000000000000000000000000000000000000000008,
,//7
#GOGOEND
1100,
1100,
1100,
1100,
1100,
1100,
33,
3330,
10000002,
02020000,
10000002,
02020000,
1112,
1112,
10101027,
0008,
4,//24
#GOGOSTART
11,
10100011,
00110011,
00110020,
500000000000000000000000000000000008000000000000,
3,
1111,
3,
11,
10100011,
00110011,
00110020,
500000000000000000000000000000000008000000000000,
3,
1111,
3,//40
#GOGOEND
600000000000000000000000000000000008000000000000,
,
1111,
3,//44
#GOGOSTART
00303001,
7008,
00303001,
7008,
3003003000000000,//49
#GOGOEND
,
,
#END
COURSE:Easy
LEVEL:2
BALLOON:5,5,4
#START
,//1
#GOGOSTART
11,
1,
11,
1,
500000000000000000000000000000000000000000000008,
,//7
#GOGOEND
1,
1,
1,
1,
1,
1,
33,
3,
10000002,
,
10000002,
,
11,
11,
10101007,
0008,
3,//24
#GOGOSTART
11,
1001,
0101,
0101,
500000000000000000000000000008000000000000000000,
3,
1110,
3,
11,
1001,
0101,
0101,
500000000000000000000000000008000000000000000000,
3,
1110,
3,//40
#GOGOEND
600000000000000000000000000000000008000000000000,
,
1110,
3,//44
#GOGOSTART
0330,
7008,
0330,
70000800,
3003003000000000,//49
#GOGOEND
,
,
#END