Files
2023-06-15 19:05:10 -05:00

330 lines
4.0 KiB
Plaintext

//TJADB Project
TITLE:Mirai wa Joe! Joe!
TITLEJA:未来はジョー!ジョー!
SUBTITLE:--Hayabusa/Duel Masters
SUBTITLEJA:「デュエル・マスターズ」より
BPM:160
WAVE:Mirai wa Joe! Joe!.ogg
OFFSET:-1.593
DEMOSTART:2.280
COURSE:Oni
LEVEL:8
BALLOON:15,3,3,3
SCOREINIT:530
SCOREDIFF:140
#START
#MEASURE 2/4
0140,
#MEASURE 4/4
1011202210112022,
1022102030202020,
1011202210112022,
1022102030202010,
2022101120221011,
2011201040101020,
1011202210112022,
1022102030202020,
7008,
200200200200200111200000,
1000201010112010,
1000201010212020,
1000202011212010,
1000201110204020,
1000201010112010,
1000201010212020,
1000202011212010,
2022202010222010,
2000102020221020,
2000102020121010,
2000101022121020,
2010201022203000,
10708141,
10708141,
10708141,
200000200000200200200200200000101010200000000000,
1010220010102200,
1011102010111222,
1010220010102200,
100010001000100000200000100010001000100000200200,
1010220010102200,
100000200200100010002000200100100100100200200200,
24000000,
30303140,//35
#GOGOSTART
1011101210304000,
1011101210304000,
1030401110304010,
4434,
1011201110221020,
1012201210222020,
1111102011111020,
1111202211104000,
1011101210304000,
1011101210304000,
31423142,
30230230,
1011202011102010,
2222202010102020,
300000101010200000000000100100100100200000000000,
300000200000000111200000,//51
#GOGOEND
1011202210112022,
1022102030202020,
1011202210112022,
1022102030202010,//55
#GOGOSTART
3434,
11023040,//57
#SCROLL 0.75
#GOGOEND
000222500000,
000000000000000000000000000000000000000800000000,
#END
COURSE:Hard
LEVEL:5
BALLOON:15,15,15
SCOREINIT:730
SCOREDIFF:200
#START
#MEASURE 2/4
04,
#MEASURE 4/4
1313,
11013000,
1313,
11013000,
2424,
22024000,
1313,
11013000,
7,
8,
10111020,
10111020,
1000200011102000,
10200222,
10111020,
10111020,
1000200011102000,
2022200020001000,
20222010,
20222010,
2000100022201000,
2014,
100000000000500008000000000000100000400000000000,
100000000000500008000000000000100000400000000000,
100000000000500008000000000000100000400000000000,
600000000000000000000000000000000008000000000000,
11001100,
2022200020222000,
11001100,
222200222200,
11001100,
2022200010102020,
33000000,
0004,//35
#GOGOSTART
11221040,
11221040,
1110200011102000,
4433,
10111020,
10222020,
500000000000000008000000500000000000000008000000,
500000000008000000100000100000000000400000000000,
11221040,
11221040,
1212,
30030030,
7,
80001122,
3333,
30000140,//51
#GOGOEND
1313,
11013000,
1313,
11013000,//55
#GOGOSTART
3434,
11013000,//57
#SCROLL 0.75
#GOGOEND
2222,
7,
8,
#END
COURSE:Normal
LEVEL:3
BALLOON:12,9,14
#START
#MEASURE 2/4
,
#MEASURE 4/4
1313,
13,
1313,
13,
1313,
13,
1313,
13,
7,
8,
1011,
1011,
12,
1,
1011,
1011,
12,
500000000000000000000008000000000000000000000000,
22,
2220,
22,
2,
1103,
1103,
1103,
600000000000000000000000000000000008000000000000,
33,
2222,
33,
2222,
33,
2222,
33000000,
,//35
#GOGOSTART
10111040,
10111040,
1212,
3333,
2022,
2022,
500000000000000000000000000000000008000000000000,
500000000000000000000000000000000008000000000000,
10111040,
10111040,
1212,
30030030,
9009,
8,
3333,
3,//51
#GOGOEND
1313,
13,
1313,
13,//55
#GOGOSTART
3434,
13,//57
#SCROLL 0.75
#GOGOEND
0700,
,
8,
#END
COURSE:Easy
LEVEL:2
BALLOON:8,6,10
#START
#MEASURE 2/4
,
#MEASURE 4/4
11,
03,
11,
03,
11,
03,
11,
03,
7,
8,
1,
1,
11,
1,
1,
1,
11,
500000000000000000000008000000000000000000000000,
2,
2,
22,
2,
0003,
0003,
0003,
600000000000000000000000000008000000000000000000,
33,
02,
33,
02,
33,
02,
3,
,//35
#GOGOSTART
1003,
1003,
1,
3333,
1011,
1011,
500000000000000000000000000000000000000008000000,
500000000000000000000000000008000000000000000000,
1003,
1003,
11,
600000000000000000000000000008000000000000000000,
9009,
8,
3333,
3,//51
#GOGOEND
11,
03,
11,
03,//55
#GOGOSTART
3333,
03,//57
#SCROLL 0.75
#GOGOEND
0700,
,
8,
#END