Files
2023-06-15 19:00:23 -05:00

349 lines
4.0 KiB
Plaintext
Raw Permalink Blame History

This file contains ambiguous Unicode characters
This file contains Unicode characters that might be confused with other characters. If you think that this is intentional, you can safely ignore this warning. Use the Escape button to reveal them.
//TJADB Project
TITLE:Mirumiru ~Mirai Mieru~
TITLEJA:ミルミル ~未来ミエル~
SUBTITLE:--magical²/Magical × Heroines Majimajo Pures!
BPM:135
WAVE:Mirumiru ~Mirai Mieru~.ogg
OFFSET:-1.927
DEMOSTART:47.373
COURSE:Oni
LEVEL:5
BALLOON:13,8
SCOREINIT:700
SCOREDIFF:190
#START
10201220,
11220220,
10201220,
11220222,
1020102010221020,
1022102000112030,
0022104000112060,
000000000000000000000008000000000000300000000000,//8
#GOGOSTART
70000083,
03//10
#GOGOEND
302212,
10201021,
10210121,
10201021,
11220222,
10210121,
10210121,
10210121,
1020202000101110,
1020111010200020,
1110102010102020,
1020111010200020,
1110102010102020,
1020111010102020,
1020111020102220,
70008222,
33330000,//26
#GOGOSTART
1020102010221020,
33330222,
1020102010221020,
33440222,
1020102010221020,
1022102000202010,
1002102010021020,
33//34-1
#GOGOEND
304040,//34-2
#GOGOSTART
1020102010221020,
33330222,
1020102010221020,
33440222,
1020102010221020,
1022102000112030,
0022104000112060,
000000000000000000000008//42-1
#GOGOEND
000000000000000000000000,//42-2
#GOGOSTART
1022102010221020,
33440222,
1022102010221020,
33440222,
1022102010221020,
1022102000112030,
0022104000112060,
000000000000000000000008//50
#GOGOEND
000000000000000000000000,
#END
COURSE:Hard
LEVEL:4
BALLOON:20,13
SCOREINIT:730
SCOREDIFF:115
#START
11,
11110000,
11,
11110000,
10201120,
11220333,
04440336,
000000000000000000000008000000000000300000000000,//8
#GOGOSTART
7,
0//10
#GOGOEND
801,
1102,
10110120,
1102,
11110220,
10110120,
10110120,
10110120,
22220000,
10211020,
10211120,
10211020,
10211120,
10221020,
10221120,
7008,
33330000,//26
#GOGOSTART
10201120,
33330220,
10201120,
33330220,
10201120,
11220000,
1001001020020020,
33//34-1
#GOGOEND
304040,//34-2
#GOGOSTART
10201120,
33330220,
10201120,
33330220,
10201120,
11220333,
04440336,
000000000000000000000008//42-1
#GOGOEND
000000000000000000000000,//42-2
#GOGOSTART
12101210,
33330220,
12101210,
33330220,
12101210,
11220333,
04440336,
000000000000000000000008//50
#GOGOEND
000000000000000000000000,
#END
COURSE:Normal
LEVEL:2
BALLOON:13,10,13
SCOREINIT:1340
SCOREDIFF:830
#START
1,
1,
1,
1,
1110,
100000000000100000000000000000500000000008000000,
000000500000000008000000000000600000000000000000,
000000000000000000000008000000000000000000000000,//8
#GOGOSTART
7,
0//10
#GOGOEND
800,
1,
11,
1,
2,
11,
11,
11,
2,
1110,
1110,
1110,
2220,
1111,
1110,
7,
8,//26
#GOGOSTART
1110,
3300,
1110,
3300,
1110,
1100,
7,
0//34-1
#GOGOEND
800,//34-2
#GOGOSTART
1110,
3300,
1110,
3300,
1110,
100000000000100000000000000000500000000008000000,
000000500000000008000000000000600000000000000000,
000000000000000000000008//42-1
#GOGOEND
000000000000000000000000,//42-2
#GOGOSTART
1111,
3300,
1111,
3300,
1111,
100000000000100000000000000000500000000008000000,
000000500000000008000000000000600000000000000000,
000000000000000000000008//50
#GOGOEND
000000000000000000000000,
#END
COURSE:Easy
LEVEL:1
BALLOON:11,8,11
SCOREINIT:1680
SCOREDIFF:1965
#START
1,
,
1,
,
11,
100000000000100000000000000000500000000008000000,
000000500000000008000000000000600000000000000000,
000000000000000000000008000000000000000000000000,//8
#GOGOSTART
7,
0//10
#GOGOEND
800,
1,
1,
1,
,
1,
1,
1,
,
11,
1,
11,
1,
11,
1,
7,
8,//26
#GOGOSTART
11,
3,
11,
3,
11,
1,
7,
0//34-1
#GOGOEND
800,//34-2
#GOGOSTART
11,
3,
11,
3,
11,
100000000000000000000000000000500000000008000000,
000000500000000008000000000000600000000000000000,
000000000000000000000008//42-1
#GOGOEND
000000000000000000000000,//42-2
#GOGOSTART
11,
3,
11,
3,
11,
100000000000000000000000000000500000000008000000,
000000500000000008000000000000600000000000000000,
000000000000000000000008//50
#GOGOEND
000000000000000000000000,
#END