Files
2023-06-15 19:00:23 -05:00

393 lines
4.5 KiB
Plaintext

//TJADB Project
TITLE:Mission! Ken・Kou・Dai・Ichi
TITLEJA:ミッション!健・康・第・イチ
SUBTITLE:--Hataraku Saibou/Cells At Work
BPM:186
WAVE:Mission! Ken・Kou・Dai・Ichi.ogg
OFFSET:-1.438
DEMOSTART:12.394
COURSE:Oni
LEVEL:7
BALLOON:8,8
SCOREINIT:640
SCOREDIFF:173
#START
#BARLINEOFF
#MEASURE 2/4
10102022,
#GOGOSTART
#BARLINEON
#MEASURE 4/4
1000202010222010,
0010201110102000,
1022201020201022,
21221020,
1000202010222010,
0010201110102000,
1110222010202010,
0708,
#GOGOEND
11211221,
2220102220100011,
1020201110202010,
21212022,
11211221,
2220102220100011,
1020201110202010,
22112105,
,
000000000008000000000000200000200000000000500000,
,
000000000000000000000008000000000000000000100000,
0022202030000010,
0022202030000010,
01121121,
34430040,
11211221,
2220102220100011,
1020201110202010,
70008202,
11211221,
2220102220100011,
1020201110202010,
22112105,
,
000000000008000000000000200000200000000000500000,
,
000000000000000000000008000000000000000000100000,
0022202030000010,
0022202030000010,
01121121,
34430000,
10212012,
12102010,
20121020,
12012011,
1000101010001011,
1011101110111050,
000000000000000000000000000000000000000008000000,
02211040,
#GOGOSTART
1010202010102011,
2020101020201022,
1010202010102011,
2020101020201022,
1110201011102010,
2220102022201022,
1100110011001100,
600000000000000000000000000008000000000000000000,
1010202010102011,
2020101020201022,
1010202010102011,
2020101020201022,
1110201011102010,
2220102022201020,
2220100022201000,
3011101010202030,
#GOGOEND
00201121,
01212112,
12212112,
12213344,
#END
COURSE:Hard
LEVEL:5
BALLOON:6,6
SCOREINIT:720
SCOREDIFF:213
#START
#BARLINEOFF
#MEASURE 2/4
,
#GOGOSTART
#BARLINEON
#MEASURE 4/4
0303,
0330,
0303,
21212000,
0303,
0330,
10101221,
0708,
#GOGOEND
11011020,
10120201,
02211020,
11221000,
11011020,
10120201,
02211020,
11221105,
,
000000000008000000000000200000200000000000500000,
,
000000000000000000000008000000000000000000100000,
01113001,
01113001,
01101110,
33330040,
11011020,
10120201,
02211020,
70008202,
11011020,
10120201,
02211020,
11221105,
,
000000000008000000000000200000200000000000500000,
,
000000000000000000000008000000000000000000100000,
01113001,
01113001,
01101110,
33330000,
10001011,
2210,
10001011,
20000011,
10101011,
10101115,
000000000000000000000000000000000000000008000000,
02221000,
#GOGOSTART
11221101,
22112202,
11221101,
22112202,
11201120,
22102210,
3333,
600000000000000000000000000008000000000000000000,
11221101,
22112202,
11221101,
22112202,
11201120,
22102211,
2121,
600000000000000000000000000008000000000000300000,
#GOGOEND
00101101,
01112222,
11112222,
11113344,
#END
COURSE:Normal
LEVEL:4
BALLOON:5
SCOREINIT:720
SCOREDIFF:255
#START
#BARLINEOFF
#MEASURE 2/4
,
#GOGOSTART
#BARLINEON
#MEASURE 4/4
0303,
0330,
0303,
4340,
0303,
0330,
500000000000000000000000000000000000000008000000,
0400,
#GOGOEND
1011,
20020001,
01101000,
2220,
1011,
20020001,
01101000,
20201105,
,
000000000008000000000000200000200000000000500000,
,
000000000000000000000008000000000000000000100000,
01103001,
01103001,
01101110,
33330040,
1011,
20020001,
01101000,
78,
1011,
20020001,
01101000,
20201105,
,
000000000008000000000000200000200000000000500000,
,
000000000000000000000008000000000000000000100000,
01103001,
01103001,
01101110,
33330000,
1011,
22,
1011,
20000011,
1111,
10101015,
000000000000000000000000000000000000000008000000,
01111000,
#GOGOSTART
10101100,
20202200,
10101100,
20202200,
1212,
2121,
3333,
600000000000000000000000000008000000000000000000,
10101100,
20202200,
10101100,
20202200,
1212,
2121,
2121,
600000000000000000000000000008000000000000300000,
#GOGOEND
0101,
0122,
1122,
10103344,
#END
COURSE:Easy
LEVEL:3
BALLOON:4
SCOREINIT:630
SCOREDIFF:300
#START
#BARLINEOFF
#MEASURE 2/4
,
#GOGOSTART
#BARLINEON
#MEASURE 4/4
0303,
0330,
0303,
3330,
0303,
0330,
500000000000000000000000000000000000000008000000,
0400,
#GOGOEND
11,
20020001,
01,
1110,
11,
20020001,
01,
10101005,
,
000000000008000000000000200000000000000000500000,
,
000000000000000000000008000000000000000000300000,
00004003,
00004003,
03,
30030000,
11,
20020001,
01,
78,
11,
20020001,
01,
10101005,
,
000000000008000000000000200000000000000000500000,
,
000000000000000000000008000000000000000000300000,
00004003,
00004003,
03,
30030000,
11,
22,
11,
2,
11,
1011,
500000000000000000000000000000000000000008000000,
,
#GOGOSTART
1110,
2220,
1110,
2220,
11,
22,
3333,
600000000000000000000000000008000000000000000000,
1110,
2220,
1110,
2220,
11,
22,
2121,
600000000000000000000000000008000000000000300000,
#GOGOEND
,
0022,
1122,
1133,
#END