Files
2023-01-17 00:45:18 -05:00

331 lines
12 KiB
Plaintext
Raw Permalink Blame History

This file contains ambiguous Unicode characters
This file contains Unicode characters that might be confused with other characters. If you think that this is intentional, you can safely ignore this warning. Use the Escape button to reveal them.
//TJADB Project
TITLE:Mixed Nuts
TITLEJA:ミックスナッツ
SUBTITLE:--Official HIGE DANdism/SPY×FAMILY
SUBTITLEJA:Official髭男dism 「SPY×FAMILY」オープニング主題歌
BPM:150
WAVE:Mixed Nuts.ogg
OFFSET:-0.570
DEMOSTART:50.957
BGMOVIE:Mixed Nuts.mp4
COURSE:Oni
LEVEL:7
BALLOON:11,22,28
SCOREINIT:2390
SCOREDIFF:0
#START
100000100000200000200000100000100000200000200000,
100000100000100000100000200000200000100000100000,
100000200000100000200000100000200000200000100000,
100000100000700000000000000000000000000800000000,
#BPMCHANGE 153.8
#SCROLL 0.9752925877763329
100000100000200200000100100000200200000100100000,
#BPMCHANGE 146
#SCROLL 1.0273972602739727
600000000000000000000000000000000000000080000000,
#BPMCHANGE 150
#SCROLL 1
300000100000100100100100200000200000100000100000,
100000000000100000000000200200100100200000200000,
100000100100100000200000100000000000200000100000,
100100100100200000100000100000000000200000100000,
100000100000200000100100100000000000100000100000,
100100100100100000100000200000000000200000100100,
100000100000200000100000200000000000200000100000,
200200100100200000200000100000100000100000000000,
100000100000100100100100200000200000100000100000,
100000000000100000000000200200100100200000200000,
100000100100100000200000100000000000200000100000,
100100100100200000100000100000000000200000100000,
100000100000200000100100100000200000200000100000,
100100100100200000200000200000000000200000100000,
100000200200100100200000000000100000200000100000,
100000200200200000000000100100100100200000200000,
100000000000100000100200000000100100200200100000,
100000000000100000100200000000100100200200100000,
100000000000100000100200000000100100100100100000,
200000100100100100200000100000200000200000100000,
100000200000100000100200000000100100200200100000,
100000200000100000100200000000100100100100100000,
200000100000100000200000200000100000100000200000,
100000200200100100200000100000100100100000200000,
700000000000000000000000000000000000000000000000,
000000000800000000000000100100100100100000
#GOGOSTART
300000,
000000100000100100100100200000200000100000100000,
000000100000200000100000100100100100200000100000,
600000000000000000000000000000000008000000600000,
000000000000000000000000000008000000100100200000,
300000100000100100000300000000200000100100100000,
300000100000100100000100000000200000100000100100,
100000200000100000200200100100200000100100100100,
200000200000200000100000100100100100100000300000,
000000100000100100100100200000200000100000100000,
000000100000200200100100200000100000200000100000,
600000000000000000000000000000000008000000600000,
000000000000000000000000000008000000100100100100,
200000100000200000200000100000100000200200100100,
200000100000200000100100100000200000200000200000,
100000100000100000200000200000100100100100200000,
100000100100100100200000200000100000200000100000,
500000000000000000000000000000000000000080000000,
200000100000100000200200100100200000100000200000,
100100100100200000100000200000200000200000100000,
100100100100100000100000200000100000200000100000,
700000000000000000000000000000000000000000000000,
000000000000000000000000000800000000300000000000,
#GOGOEND
#END
COURSE:Hard
LEVEL:5
BALLOON:24,20,17,16,24
SCOREINIT:4700
SCOREDIFF:0
#START
100000000000100000000000100000100000200000000000,
100000000000100000000000100000100000200000000000,
100000000000200000000000200000000000100000100000,
100000000000200000000000100000100000200000000000,
#BPMCHANGE 153.8
#SCROLL 0.9752925877763329
700000000000000000000000000000000000000000000000,
#BPMCHANGE 146
#SCROLL 1.0273972602739727
000000000000000000000000080000000000000000000000,
#BPMCHANGE 150
#SCROLL 1
300000100000100000200000200000000000100000100000,
100000000000100000000000200000000000200000200000,
100000000000100000000000000000000000200000000000,
100000000000000000100000100000000000000000100000,
100000000000000000100000100000000000100000100000,
100000000000100000100000200000000000200000200000,
100000000000000000100000200000000000000000100000,
500000000000000000000000000000000000000008000000,
100000100000100000200000200000000000100000100000,
100000000000100000000000200000000000200000200000,
100000000000100000000000000000000000200000000000,
100000000000000000100000100000000000000000100000,
100000000000000000100000100000200000200000100000,
100000000000000000200000200000000000000000100000,
700000000000000000000000000000000000000000000000,
000000000000800000000000100000100000100000000000,
100000000000100000100100000000000000200000000000,
100000000000100000100100000000000000200000000000,
100000000000100000100100000000000000100000000000,
200000000000000000000000200000200000200000000000,
100000000000100000100100000000000000200000000000,
100000000000100000100100000000000000100000000000,
200000000000200000200000200000000000200000200000,
100000000000100000100000100000000000000000100000,
700000000000000000000000000000000000000000000000,
000000000080000000000000100000100000100000
#GOGOSTART
300000,
000000100000100000200000200000000000100000100000,
000000100000200000000000100000100000100000000000,
600000000000000000000000000000000000000000000000,
000000000000000000000000000008000000000000000000,
300000000000100100000100000000000000100000100000,
300000000000100100000100000000000000100000100000,
100000000000100000700000000000000000000000000000,
000000000000000000800000000000000000100000300000,
000000100000100000200000200000000000100000100000,
000000100000200000000000100000100000100000000000,
600000000000000000000000000000000000000000000000,
000000000000000000000000000080000000000000000000,
100000100000200000200000100000100000200000200000,
100000000000100000100000000000200000200000200000,
000000100000100000200000200000100000100000000000,
100000000000000000100000200000100000100000000000,
500000000000000000000000000000000000000080000000,
000000100000100000100000000000100000100000200000,
200000000000000000100000200000000000000000100000,
100000000000000000100000200000100000100000000000,
700000000000000000000000000000000000000000000000,
000000000000000000000000080000000000300000000000,
#GOGOEND
#END
COURSE:Normal
LEVEL:4
BALLOON:16,16,12,10,13
SCOREINIT:7960
SCOREDIFF:0
#START
100000000000100000000000100000000000100000000000,
100000000000100000000000100000000000000000000000,
100000000000100000000000100000000000100000000000,
100000000000100000000000100000000000000000000000,
#BPMCHANGE 153.8
#SCROLL 0.9752925877763329
700000000000000000000000000000000000000000000000,
#BPMCHANGE 146
#SCROLL 1.0273972602739727
000000000000000000000000080000000000000000000000,
#BPMCHANGE 150
#SCROLL 1
300000000000100000000000100000000000000000000000,
100000000000100000000000200000000000200000000000,
100000000000100000000000000000000000000000000000,
100000000000000000100000100000000000000000000000,
100000000000000000100000100000000000000000000000,
100000000000100000000000200000000000000000000000,
100000000000000000000000100000000000000000000000,
500000000000000000000000000000000000000008000000,
100000000000100000000000100000000000000000000000,
100000000000100000000000200000000000200000000000,
100000000000100000000000000000000000000000000000,
100000000000000000100000100000000000000000000000,
100000000000000000100000100000000000000000000000,
100000000000000000200000200000000000000000000000,
700000000000000000000000000000000000000000000000,
000000000000000000000000080000000000000000000000,
100000000000100000100000000000000000000000000000,
100000000000100000100000000000000000000000000000,
100000000000100000100000000000000000000000000000,
200000000000000000000000200000000000200000000000,
100000000000100000100000000000000000000000000000,
100000000000100000100000000000000000000000000000,
200000000000000000000000200000000000200000000000,
100000000000100000100000100000000000000000000000,
700000000000000000000000000000000000000000000000,
000000080000000000000000000000000000000000
#GOGOSTART
300000,
000000000000100000000000100000000000000000100000,
000000000000100000000000100000100000100000000000,
600000000000000000000000000000000000000000000000,
000000000000000000000000000008000000000000000000,
300000000000100000000000000000000000100000000000,
300000000000100000000000000000000000100000100000,
100000000000000000700000000000000000000000000000,
000000000000000000080000000000000000000000300000,
000000000000100000000000100000000000000000100000,
000000000000100000000000100000100000100000000000,
600000000000000000000000000000000000000000000000,
000000000000000000000000000008000000000000000000,
100000000000100000000000100000000000000000000000,
100000000000100000000000000000000000200000000000,
200000000000000000000000100000000000100000000000,
100000000000000000000000100000100000100000000000,
500000000000000000000000000000000000000080000000,
100000000000100000000000000000000000100000000000,
100000000000000000000000200000000000000000000000,
100000000000000000000000100000100000100000000000,
700000000000000000000000000000000000000000000000,
000000000000080000000000000000000000300000000000,
#GOGOEND
#END
COURSE:Easy
LEVEL:2
BALLOON:13,13,9,8,11
SCOREINIT:12220
SCOREDIFF:0
#START
100000000000000000000000000000000000000000000000,
100000000000000000000000100000000000000000000000,
100000000000000000000000000000000000000000000000,
200000000000000000000000000000000000000000000000,
#BPMCHANGE 153.8
#SCROLL 0.9752925877763329
700000000000000000000000000000000000000000000000,
#BPMCHANGE 146
#SCROLL 1.0273972602739727
000000000000000000000000800000000000000000000000,
#BPMCHANGE 150
#SCROLL 1
300000000000000000000000100000000000000000000000,
100000000000000000000000100000000000000000000000,
200000000000000000000000000000000000000000000000,
100000000000000000000000100000000000000000000000,
100000000000000000000000100000000000100000000000,
100000000000000000000000100000000000000000000000,
100000000000000000000000100000000000000000000000,
500000000000000000000000000080000000000000000000,
100000000000000000000000100000000000000000000000,
100000000000000000000000100000000000000000000000,
200000000000000000000000000000000000000000000000,
100000000000000000000000100000000000000000000000,
100000000000000000000000100000000000100000000000,
100000000000000000000000200000000000000000000000,
700000000000000000000000000000000000000000000000,
000000000000000000000000080000000000000000000000,
100000000000100000000000000000000000000000000000,
100000000000100000000000000000000000000000000000,
100000000000100000000000000000000000000000000000,
100000000000000000000000200000000000000000000000,
100000000000100000000000000000000000000000000000,
100000000000100000000000000000000000000000000000,
100000000000000000000000100000000000100000000000,
100000000000000000000000100000000000000000000000,
700000000000000000000000000000000000000000000000,
000000800000000000000000000000000000000000
#GOGOSTART
300000,
000000000000100000000000100000000000000000000000,
000000000000100000000000100000000000100000000000,
600000000000000000000000000000000000000000000000,
000000000000000000000000000008000000000000000000,
300000000000000000000000000000000000100000000000,
300000000000000000000000000000000000100000000000,
100000000000000000700000000000000000000000000000,
000000000000000000080000000000000000000000300000,
000000000000100000000000100000000000000000000000,
000000000000100000000000100000000000100000000000,
600000000000000000000000000000000000000000000000,
000000000000000000000000000008000000000000000000,
100000000000000000000000100000000000000000000000,
100000000000000000000000000000000000000000000000,
200000000000000000000000100000000000000000000000,
100000000000000000000000100000000000100000000000,
500000000000000000000000000080000000000000000000,
100000000000000000000000000000000000100000000000,
100000000000000000000000200000000000000000000000,
100000000000000000000000100000000000100000000000,
700000000000000000000000000000000000000000000000,
000000000000080000000000000000000000300000000000,
#GOGOEND
#END