forked from ESE/ESE
315 lines
11 KiB
Plaintext
315 lines
11 KiB
Plaintext
//TJADB Project
|
|
TITLE:Moete Hero
|
|
TITLEJA:燃えてヒーロー
|
|
SUBTITLE:--Hiroyuki Okita/Captain Tsubasa
|
|
SUBTITLEJA:「キャプテン翼」より
|
|
BPM:157
|
|
WAVE:Moete Hero.ogg
|
|
OFFSET:-1.644
|
|
DEMOSTART:53.618
|
|
|
|
COURSE:Oni
|
|
LEVEL:5
|
|
BALLOON:15,15,20,18
|
|
SCOREINIT:930
|
|
SCOREDIFF:265
|
|
|
|
|
|
#START
|
|
|
|
|
|
000000000000000000000000000000000000000000000000,
|
|
000000000000000000000000100000100000100000200000,
|
|
000000000000100000000000100000200000000000200000,
|
|
000000200000100000000000100000100000000000100000,
|
|
000000200200200000200000200000200000000000200000,
|
|
000000200000200000200000100000100000100000200000,
|
|
000000000000100000000000100000200000000000200000,
|
|
000000200000100000000000100000200000000000100000,
|
|
000000200000200000100000200000200000000000200000,
|
|
000000200000100000100000100000400000000000000000,
|
|
000000100000000000100000100000200000000000100000,
|
|
100000000000200000100000100000200000000000000000,
|
|
100000200000100000100000100000000000200000200000,
|
|
100000000000200000100000100000400000000000000000,
|
|
000000100000100000200000100000100000000000100000,
|
|
100000000000200000100000100000200000000000000000,
|
|
100000200000100000100000100000000000200000200000,
|
|
100000000000200000100000100000200000000000000000,
|
|
100000000000100000100000100000000000300000000000,
|
|
200000000000200000200000200000000000400000000000,
|
|
100000100100100000100000100000000000300000000000,
|
|
200000200200200000200000200000000000400000000000,
|
|
100000200000100000100000100000200000100000100000,
|
|
100000200000100000100000100000000000200000000000,
|
|
700000000000000000000000000000000000000000000000,
|
|
800000000000000000300000000000100100200000000000,
|
|
000000100000100000200000100000200000100000100000,
|
|
100000200000100000100000100000200000000000200000,
|
|
700000000000000000000000000000000000000000000000,
|
|
800000000000000000000000000000000000000000000000,
|
|
000000100000100000200000100000100000000000200000,
|
|
500000000000000000000000000000008000000000000000,
|
|
100000100100100000200000100000000000200000000000,
|
|
500000000000000000000000000000008000000000000000,
|
|
|
|
#GOGOSTART
|
|
000000300000000000200000300000000000200000200000,
|
|
300000000000000000000000000000200200200000200000,
|
|
000000400000000000100000400000000000100000100000,
|
|
400000000000000000000000000000200200200000200000,
|
|
300000000000200000200000300000000000200000200000,
|
|
300000000000000020000000200000000000000030000000,
|
|
000000007000000000000000000000000000000000000000,
|
|
000000000000000000000000000000000000000000000000,
|
|
|
|
#GOGOEND
|
|
800000000000000000000000000000000000000000000000,
|
|
000000100000000000100000100000200200200000200000,
|
|
000000100000000000100000100000200200200000200000,
|
|
300000200200200000200000300000200200200000200000,
|
|
500000000000000000000000008000000000000000000000,
|
|
|
|
#GOGOSTART
|
|
000000300000000000200000300000200200200000200000,
|
|
300000200200200000200000000000200200200000200000,
|
|
000000400000000000100000400000100100100000100000,
|
|
400000100100100000100000100100100000100000000000,
|
|
100000100100100000100000000000200200200000200000,
|
|
100000100100100000100000000000200200200000200000,
|
|
100000200200200000200000100000200200200000200000,
|
|
700000000000000000000000000000000000000000000008,
|
|
|
|
#GOGOEND
|
|
|
|
|
|
#END
|
|
|
|
|
|
COURSE:Hard
|
|
LEVEL:4
|
|
BALLOON:13,13,17,15
|
|
SCOREINIT:1120
|
|
SCOREDIFF:373
|
|
|
|
|
|
#START
|
|
|
|
|
|
000000000000000000000000000000000000000000000000,
|
|
000000000000000000000000100000100000100000100000,
|
|
000000000000100000000000100000100000000000200000,
|
|
000000000000100000000000100000100000000000100000,
|
|
000000200000000000000000200000000000000000200000,
|
|
000000200000200000000000100000100000100000100000,
|
|
000000000000100000000000100000100000000000200000,
|
|
000000000000100000000000100000100000000000100000,
|
|
000000200000000000000000200000200000000000200000,
|
|
000000200000200000200000000000400000000000000000,
|
|
000000100000000000100000100000000000000000200000,
|
|
200000000000000000000000000000200000000000000000,
|
|
100000000000100000100000100000000000200000000000,
|
|
100000000000000000000000000000200000000000000000,
|
|
000000100000100000000000100000100000000000200000,
|
|
200000000000000000000000000000000000000000000000,
|
|
100000100000100000000000100000000000100000000000,
|
|
100000000000000000000000000000200000000000000000,
|
|
100000000000100000000000100000000000300000000000,
|
|
200000000000200000000000200000000000400000000000,
|
|
100000000000100000100000100000000000300000000000,
|
|
200000000000200000200000200000000000400000000000,
|
|
100000000000100000100000100000000000100000100000,
|
|
100000000000100000100000100000000000100000000000,
|
|
700000000000000000000000000000000000000000800000,
|
|
000000000000000000000000000000000000000000000000,
|
|
000000100000100000000000100000000000100000100000,
|
|
100000000000100000100000100000000000200000000000,
|
|
700000000000000000000000000000000000000000800000,
|
|
000000000000000000000000000000000000000000000000,
|
|
000000100000100000000000100000100000000000200000,
|
|
500000000000000000000000000000080000000000000000,
|
|
100000100000100000200000100000000000200000000000,
|
|
500000000000000000000000000000080000000000000000,
|
|
#GOGOSTART
|
|
000000300000000000200000300000000000000000200000,
|
|
300000000000000000000000000000000000000000000000,
|
|
000000400000000000100000400000000000000000100000,
|
|
400000000000000000000000000000000000000000000000,
|
|
300000000000200000200000300000000000200000200000,
|
|
300000000000200000200000000000300000000000900000,
|
|
,
|
|
|
|
#GOGOEND
|
|
8,
|
|
000000100000000000100000200000000000200000200000,
|
|
000000100000000000100000200000000000200000200000,
|
|
300000000000200000200000300000000000200000000000,
|
|
500000000000000000000000080000000000000000000000,
|
|
#GOGOSTART
|
|
000000300000000000200000300000000000000000200000,
|
|
300000000000000000000000000000000000000000000000,
|
|
000000400000000000100000400000000000000000100000,
|
|
400000000000000000000000000000000000000000000000,
|
|
100000000000100000100000000000200000200000000000,
|
|
100000000000100000100000000000200000200000000000,
|
|
100000200000000000200000100000000000200000000000,
|
|
900000000000000000000000000000000000000000000008,
|
|
#GOGOEND
|
|
|
|
|
|
#END
|
|
|
|
|
|
COURSE:Normal
|
|
LEVEL:2
|
|
BALLOON:10,10,10,12,10
|
|
SCOREINIT:1350
|
|
SCOREDIFF:815
|
|
|
|
|
|
#START
|
|
|
|
|
|
000000000000000000000000000000000000000000000000,
|
|
000000000000000000000000000000000000000000000000,
|
|
000000000000100000000000100000100000000000000000,
|
|
000000000000100000000000100000100000000000700000,
|
|
,
|
|
8,
|
|
000000000000000000000000000000000000000000000000,
|
|
000000000000100000000000100000100000000000000000,
|
|
000000000000100000000000100000100000000000700000,
|
|
,
|
|
8,
|
|
000000000000000000000000000000000000000000000000,
|
|
000000100000000000000000100000000000000000000000,
|
|
100000000000000000000000000000000000000000000000,
|
|
100000000000000000000000100000000000100000000000,
|
|
100000000000000000000000000000000000000000000000,
|
|
000000100000000000000000100000000000000000000000,
|
|
100000000000000000000000000000000000000000000000,
|
|
100000000000000000000000100000000000100000000000,
|
|
100000000000000000000000000000000000000000000000,
|
|
100000000000100000000000300000000000000000000000,
|
|
200000000000200000000000400000000000000000000000,
|
|
100000000000100000000000300000000000000000000000,
|
|
200000000000200000000000400000000000000000000000,
|
|
100000000000000000000000100000000000000000000000,
|
|
100000000000100000000000100000000000000000000000,
|
|
700000000000000000000000000000000000000000800000,
|
|
000000000000000000000000000000000000000000000000,
|
|
100000000000000000000000100000000000000000000000,
|
|
100000000000100000000000100000000000000000000000,
|
|
700000000000000000000000000000000000000000800000,
|
|
000000000000000000000000000000000000000000000000,
|
|
100000000000000000000000100000000000000000000000,
|
|
500000000000000000000000000000080000000000000000,
|
|
100000000000000000000000100000000000100000000000,
|
|
500000000000000000000000000000080000000000000000,
|
|
#GOGOSTART
|
|
000000300000000000000000300000000000000000000000,
|
|
300000000000000000000000000000000000000000000000,
|
|
000000400000000000000000400000000000000000000000,
|
|
400000000000000000000000000000000000000000000000,
|
|
300000000000000000000000300000000000000000000000,
|
|
300000000000000000000000000000000000000000900000,
|
|
,
|
|
|
|
#GOGOEND
|
|
8,
|
|
000000100000000000100000100000000000000000000000,
|
|
000000100000000000100000100000000000000000000000,
|
|
300000000000000000000000000000000000000000000000,
|
|
500000000000000000000000080000000000000000000000,
|
|
|
|
#GOGOSTART
|
|
000000300000000000000000300000000000000000000000,
|
|
300000000000000000000000000000000000000000000000,
|
|
000000400000000000000000400000000000000000000000,
|
|
400000000000000000000000000000000000000000000000,
|
|
100000000000100000100000000000000000000000000000,
|
|
100000000000100000100000000000000000000000000000,
|
|
000000200000000000000000200000000000200000000000,
|
|
900000000000000000000000000000000000000000000008,
|
|
#GOGOEND
|
|
|
|
|
|
#END
|
|
|
|
|
|
COURSE:Easy
|
|
LEVEL:3
|
|
BALLOON:7,7,5,5,9,7
|
|
SCOREINIT:1220
|
|
SCOREDIFF:903
|
|
|
|
|
|
#START
|
|
|
|
|
|
000000000000000000000000000000000000000000000000,
|
|
000000000000000000000000000000000000000000000000,
|
|
000000000000100000000000100000000000000000000000,
|
|
000000000000100000000000100000000000000000700000,
|
|
,
|
|
8,
|
|
000000000000000000000000000000000000000000000000,
|
|
000000000000100000000000100000000000000000000000,
|
|
000000000000100000000000100000000000000000700000,
|
|
,
|
|
8,
|
|
000000000000000000000000000000000000000000000000,
|
|
000000100000000000000000100000000000000000000000,
|
|
100000000000000000000000000000000000000000000000,
|
|
100000000000000000000000100000000000000000000000,
|
|
100000000000000000000000000000000000000000000000,
|
|
000000100000000000000000100000000000000000000000,
|
|
100000000000000000000000000000000000000000000000,
|
|
100000000000000000000000100000000000000000000000,
|
|
100000000000000000000000000000000000000000000000,
|
|
100000000000000000000000300000000000000000000000,
|
|
200000000000000000000000400000000000000000000000,
|
|
100000000000000000000000300000000000000000000000,
|
|
200000000000000000000000400000000000000000000000,
|
|
100000000000000000000000100000000000000000000000,
|
|
100000000000000000000000100000000000000000000000,
|
|
700000000000000000000000000000000000000000800000,
|
|
000000000000000000000000000000000000000000000000,
|
|
100000000000000000000000100000000000000000000000,
|
|
100000000000000000000000100000000000000000000000,
|
|
700000000000000000000000000000000000000000800000,
|
|
000000000000000000000000000000000000000000000000,
|
|
100000000000000000000000100000000000000000000000,
|
|
500000000000000000000000000000080000000000000000,
|
|
100000000000000000000000100000000000000000000000,
|
|
500000000000000000000000000000080000000000000000,
|
|
#GOGOSTART
|
|
000000300000000000000000300000000000000000000000,
|
|
300000000000000000000000000000000000000000000000,
|
|
000000400000000000000000400000000000000000000000,
|
|
400000000000000000000000000000000000000000000000,
|
|
300000000000000000000000300000000000000000000000,
|
|
300000000000000000000000000000000000000000900000,
|
|
,
|
|
|
|
#GOGOEND
|
|
800000000000000000000000000000000000000000000000,
|
|
000000100000000000000000100000000000000000000000,
|
|
000000100000000000000000100000000000000000000000,
|
|
300000000000000000000000000000000000000000000000,
|
|
500000000000000000000000080000000000000000000000,
|
|
#GOGOSTART
|
|
000000300000000000000000300000000000000000000000,
|
|
300000000000000000000000000000000000000000000000,
|
|
000000400000000000000000400000000000000000000000,
|
|
400000000000000000000000000000000000000000000000,
|
|
100000000000000000100000000000000000000000000000,
|
|
100000000000000000100000000000000000000000000000,
|
|
000000200000000000000000200000000000000000000000,
|
|
900000000000000000000000000000000000000000000008,
|
|
#GOGOEND
|
|
|
|
|
|
#END
|
|
|