Files
2023-06-15 19:15:39 -05:00

321 lines
12 KiB
Plaintext

//TJADB Project
TITLE:NIGHT OF FIRE
TITLEJA:NIGHT OF FIRE
SUBTITLE:--NIKO/Initial D
BPM:155.02
WAVE:NIGHT OF FIRE.ogg
OFFSET:-1.755
DEMOSTART:52.072
COURSE:Oni
LEVEL:8
SCOREINIT:590
SCOREDIFF:130
#START
300000000000000000000000000000000000000000000000,
100000000000000000000000000000000000000000000000,
100000000000000000000000000000000000000000000000,
100000000000000000000000000000000000000000000000,
100000000000100000000000100000000000100000000000,
100000000000100000000000100000000000100000000000,
100000000000100000000000100000000000100000000000,
100000000100000000100000000100000000100000100000,
#MEASURE 2/4
300000000000000000000000,
#MEASURE 4/4
100000200000100100200000100100100100000100100000,
100100200200100100200200100100200200100100100000,
100000200000100100200000100100100100000100200000,
200200100100200200100100200200100100200200200000,
100000200000100100200000100100100100000100100000,
100100200200100100200200100100200200100100200000,
100000200000100100200000100100100100000100200000,
200200100100200200100100200200100000300000300000,
100000200000100000200000100200000200100000000000,
100100100100200000200000100100100100200000000000,
100000200000100100200000100100100100000100100000,
100100200200100100200200100100100000100100200000,
100000200000100000200000100200000200100000200000,
100100100100200000200000100100100100200000000000,
100000200000100100200000100100100100000100200000,
200200000100100000200200000100100000100100100000,
100000100100200000100100200000100100200000200000,
100000100100200000100100200000200200200000200000,
100100100000200200200000100100100000200200200000,
100000100100200000100100200000100100200000200000,
100000100100200000100100200000100100200000200000,
100000100100200000100100200000200000200000000000,
300000000000000000000000300000000000000000300000,
000000300000300000400000300000400000000000000000,
#GOGOSTART
300000000000300000000000300000300000000000000000,
100000100100200000100000100100000100200000200000,
100000100100200000100000100100000100200000100000,
200000200200200000200200200200200000400000000000,
100000100100100000200000100100100100100000100000,
100000100100200000100000100100000100200000200000,
100000100100200000100000100100000100200000100000,
200000200200200000200200200200200000400000000000,
300000000000300000000000300000300000000000000000,
100000100100200000100000100100000100200000200000,
100000100100200000100000100100000100200000100000,
100000200200100000200200100200200000300000000000,
100000100100100000200000100100100100100000200000,
100000100100200000100000100100000100200000200000,
100000100100200000100000100100000200200000300000,
000000300000300000400000300000000000300000000000,
#GOGOEND
100000200000100100200000100100100100000100100000,
100100200200100100200200100100200200100100100000,
100000200000100100200000100100100100000100200000,
200200100100200200100100200200100100200200200000,
100000200000100100200000100100100200000100200000,
200100100200100100200100100200100100200100200000,
100000200000100100200000100100200100000100200000,
200200100200200100200200100200200100200100200000,
300000000000000000000000000000000000000000000000,
#END
COURSE:Hard
LEVEL:7
SCOREINIT:510
SCOREDIFF:140
#START
300000000000000000000000000000000000000000000000,
100000000000000000000000000000000000000000000000,
100000000000000000000000000000000000000000000000,
100000000000000000000000000000000000000000000000,
100000000000100000000000100000000000100000000000,
100000000000100000000000100000000000100000000000,
100000000000100000000000100000000000100000000000,
100000000100000000100000000100000000100000100000,
#MEASURE 2/4
300000000000000000000000,
#MEASURE 4/4
100000100000100100100000100100100000100000000000,
100100100000200200200000100100100000100000000000,
100000100000100100100000100100100000100000000000,
200200200000100100100000200200200000200000000000,
100000100000100100100000100100100000100000000000,
100100100000200200200000100100100000100000000000,
100000200000100100100000100100100000100000000000,
100100000100100000100100000100100000300000000000,
100000200000100000200000100100000100100000000000,
100100100000200000000000100100100000200000000000,
100000200000100100100000100100100000100000000000,
100100100000200200200000100100100000100000000000,
100000200000100000200000100100000100100000000000,
100100100000200000000000100100100000200000000000,
100000200000100100100000100100100000100000000000,
100100000100100000100100000100100000300000000000,
100000100100100000100100100000200200200000200000,
100000100100100000100100100000200000200000000000,
100100100000200000000000100100100000200000000000,
100000100100100000100100100000100000100000000000,
100000100100100000100100100000200200200000200000,
100000100100100000100100100000200000200000000000,
300000000000000000000000300000000000000000300000,
000000300000300000000000300000300000000000000000,
#GOGOSTART
300000000000300000000000300000300000000000000000,
100100000100100000200000100000200000200000000000,
100100000100100000200000100000200000100000000000,
100000200200200000200200200000000000400000000000,
100000100100100000000000300000300000000000000000,
100100000100100000200000100000200000200000000000,
100100000100100000200000100000200000100000000000,
100000200200200000200200200000000000400000000000,
300000000000300000000000300000300000000000000000,
100100000100100000200000100000200200200000000000,
100100000100100000200000100000200200200000200000,
100000100100200000100100200000000000300000000000,
100000100100100000000000300000300000000000000000,
100100000100100000200000100000200200200000000000,
100100000100100000200000100000200000200000300000,
000000300000300000400000300000000000300000000000,
#GOGOEND
100000100000100100100000100100100000100000000000,
100100100000200200200000100100100000100000000000,
100000100000100100100000100100100000100000000000,
200200200000100100100000200200200000200000000000,
100000100000100100100000100100100000100000000000,
100100100000200200200000100100100000100000000000,
100000200000100100100000100100100000100000000000,
100100000100100000100100000100100000300000000000,
300000000000000000000000000000000000000000000000,
#END
COURSE:Normal
LEVEL:6
SCOREINIT:820
SCOREDIFF:240
#START
300000000000000000000000000000000000000000000000,
300000000000000000000000000000000000000000000000,
300000000000000000000000000000000000000000000000,
300000000000000000000000000000000000000000000000,
100000000000000000000000100000000000000000000000,
100000000000000000000000100000000000000000000000,
100000000000000000000000100000000000000000000000,
100000000000000000100000000000000000100000000000,
#MEASURE 2/4
300000000000000000000000,
#MEASURE 4/4
100000000000100000000000100000100000100000000000,
100000000000100000000000100000000000000000000000,
100000000000100000000000100000100000100000000000,
100000000000100000000000100000000000000000000000,
100000000000100000000000200000200000200000000000,
100000000000100000000000100000000000000000000000,
100000000000100000000000200000200000200000000000,
300000000000300000000000300000000000000000000000,
100000000000100000000000100000100000100000000000,
100000000000100000000000100000100000100000000000,
100000000000200000000000100000000000000000000000,
100000000000200000000000100000000000000000000000,
100000000000100000000000100000100000100000000000,
100000000000100000000000100000100000100000000000,
100000000000200000000000100000000000000000000000,
100000000000200000000000100000000000000000000000,
100000100000100000000000100000000000000000000000,
100000100000100000000000100000000000000000000000,
100000100000000000000000100000100000000000000000,
100000100000000000000000100000100000000000000000,
200000200000200000000000200000000000000000000000,
200000200000200000000000200000000000000000000000,
300000000000000000000000300000000000000000300000,
000000000000300000000000300000000000000000000000,
#GOGOSTART
300000000000300000000000300000000000000000000000,
100000000000100000000000100000100000100000000000,
100000000000100000000000100000100000100000000000,
100000000000000000000000200000000000000000000000,
300000000000300000000000300000000000000000000000,
100000000000100000000000100000100000100000000000,
100000000000100000000000100000100000100000000000,
100000000000000000000000200000000000000000000000,
300000000000300000000000300000000000000000000000,
100000000000100000000000200000200000200000000000,
100000000000100000000000200000200000200000000000,
100000000000000000000000200000000000000000000000,
300000000000300000000000300000000000000000000000,
100000000000100000000000200000200000200000000000,
100000000000100000000000200000200000200000000000,
300000000000300000000000300000000000000000000000,
#GOGOEND
100000000000100000000000100000100000100000000000,
100000000000200000000000100000000000000000000000,
100000000000100000000000100000100000100000000000,
100000000000200000000000100000000000000000000000,
100000100000100000000000100000100000100000000000,
100000000000200000000000100000000000000000000000,
100000100000100000000000100000100000100000000000,
100000000000200000000000100000000000000000000000,
300000000000000000000000000000000000000000000000,
#END
COURSE:Easy
LEVEL:4
SCOREINIT:590
SCOREDIFF:200
#START
300000000000000000000000000000000000000000000000,
300000000000000000000000000000000000000000000000,
300000000000000000000000000000000000000000000000,
300000000000000000000000000000000000000000000000,
100000000000000000000000100000000000000000000000,
100000000000000000000000100000000000000000000000,
100000000000000000000000100000000000000000000000,
300000000000000000300000000000000000300000000000,
#MEASURE 2/4
000000000000000000000000,
#MEASURE 4/4
100000000000100000000000100000000000000000000000,
100000000000100000000000100000000000000000000000,
200000000000200000000000200000000000000000000000,
200000000000200000000000200000000000000000000000,
100000000000100000000000100000000000000000000000,
100000000000100000000000100000000000000000000000,
200000000000200000000000200000000000000000000000,
200000000000200000000000200000000000000000000000,
100000000000000000000000100000000000000000000000,
100000000000000000000000100000000000000000000000,
100000000000100000000000100000000000000000000000,
200000000000000000000000200000000000000000000000,
100000000000000000000000100000000000000000000000,
100000000000000000000000100000000000000000000000,
100000000000100000000000100000000000000000000000,
200000000000000000000000200000000000000000000000,
100000000000000000000000200000000000000000000000,
100000000000000000000000200000000000000000000000,
100000000000200000000000100000000000000000000000,
100000000000200000000000100000000000000000000000,
100000000000000000000000200000000000000000000000,
100000000000000000000000200000000000000000000000,
300000000000000000000000300000000000000000300000,
000000000000300000000000300000000000000000000000,
#GOGOSTART
300000000000300000000000300000000000000000000000,
100000000000100000000000200000000000000000000000,
100000000000100000000000200000000000000000000000,
100000000000100000000000200000000000000000000000,
300000000000300000000000300000000000000000000000,
100000000000100000000000200000000000000000000000,
100000000000100000000000200000000000000000000000,
100000000000100000000000200000000000000000000000,
400000000000400000000000400000000000000000000000,
100000000000100000000000200000000000000000000000,
100000000000100000000000200000000000000000000000,
100000000000100000000000200000000000000000000000,
400000000000400000000000400000000000000000000000,
100000000000100000000000200000000000000000000000,
100000000000100000000000200000000000000000000000,
300000000000300000000000300000000000000000000000,
#GOGOEND
100000000000100000000000100000000000000000000000,
100000000000100000000000100000000000000000000000,
200000000000200000000000200000000000000000000000,
200000000000200000000000200000000000000000000000,
100000000000100000000000100000000000100000000000,
100000000000100000000000100000000000000000000000,
100000000000100000000000100000000000100000000000,
100000000000100000000000100000000000000000000000,
300000000000000000000000000000000000000000000000,
#END