forked from ESE/ESE
588 lines
6.5 KiB
Plaintext
588 lines
6.5 KiB
Plaintext
TITLE:New Genesis
|
|
TITLEJA:新時代
|
|
SUBTITLE:--Ado / Uta's Songs: ONE PIECE FILM RED
|
|
SUBTITLEJA:「ウタの歌 ONE PIECE FILM RED」より
|
|
BPM:117.96
|
|
WAVE:New Genesis.ogg
|
|
OFFSET:-1.019
|
|
DEMOSTART:88.5
|
|
|
|
COURSE:Oni
|
|
LEVEL:7
|
|
BALLOON:12,12,
|
|
SCOREINIT:540
|
|
SCOREDIFF:140
|
|
|
|
#START
|
|
2,
|
|
,
|
|
#SCROLL 1.35
|
|
#BPMCHANGE 86.86
|
|
2
|
|
#SCROLL 0.95
|
|
#BPMCHANGE 122.92
|
|
000,
|
|
#SCROLL 1.06
|
|
#BPMCHANGE 110.47
|
|
00200002,
|
|
#SCROLL 1.1
|
|
#MEASURE 5/4
|
|
#BPMCHANGE 105.85
|
|
000000500000000000000000000000000000000000000008
|
|
#SCROLL 1.16
|
|
#BPMCHANGE 101.58
|
|
000000000000,
|
|
#SCROLL 1.07
|
|
#MEASURE 4/4
|
|
#BPMCHANGE 110.1
|
|
00200002,
|
|
#SCROLL 1.11
|
|
#BPMCHANGE 106.14
|
|
0500,
|
|
,
|
|
000000000000000000000008000000000000000000000000,
|
|
#SCROLL 1.08
|
|
#BPMCHANGE 161.92
|
|
,
|
|
|
|
#SCROLL 1
|
|
#BPMCHANGE 175
|
|
30230300,
|
|
30130300,
|
|
30230230,
|
|
11013330,
|
|
6,
|
|
000000000000000000000000000000000008000000000000,
|
|
10110110,
|
|
12111040,
|
|
|
|
#GOGOSTART
|
|
1020101020101110,
|
|
12112230,
|
|
1020101022102020,
|
|
1022201120101020,
|
|
1020101020101110,
|
|
12112230,
|
|
1020101022102020,
|
|
11101011101000
|
|
|
|
#GOGOEND
|
|
10,
|
|
|
|
01211121,
|
|
2011102000200011,
|
|
11212121,
|
|
2022101000200010,
|
|
01221220,
|
|
21211221,
|
|
01212012,
|
|
20210201,
|
|
|
|
01211121,
|
|
2011102000200011,
|
|
11212121,
|
|
1022101000200010,
|
|
01201020,
|
|
21121202,
|
|
0022101020101030,
|
|
01301300,
|
|
|
|
1011201020001120,
|
|
1020001120221000,
|
|
1011102010102220,
|
|
1011201010200020,
|
|
1011201020001120,
|
|
1020001120221000,
|
|
1011202010102010,
|
|
1010200020201022,
|
|
|
|
11210121,
|
|
1010201010222010,
|
|
0022201000222010,
|
|
0010201010202011,
|
|
11210121,
|
|
1010201010222010,
|
|
07000008,
|
|
02212212,
|
|
|
|
#GOGOSTART
|
|
1001202010222010,
|
|
0011201010122010,
|
|
0001202010222010,
|
|
0011201000122010,
|
|
000000500000000000000000000000000000000008000000,
|
|
0011201000122010,
|
|
000000500000000000000000000000000000000000000008,
|
|
0011101011103000,
|
|
|
|
1001202010222010,
|
|
0011201010122010,
|
|
0001202010222010,
|
|
0011201000122010,
|
|
000000500000000000000000000000000000000008000000,
|
|
0011201000122010,
|
|
000000500000000000000000000000000000000008000000,
|
|
|
|
#GOGOEND
|
|
,
|
|
|
|
10201121,
|
|
10201121,
|
|
20201221,
|
|
1000201110102020,
|
|
10201121,
|
|
10201121,
|
|
20201221,
|
|
1020201111104000,
|
|
|
|
#GOGOSTART
|
|
1020101020101110,
|
|
12112120,
|
|
1020101020102220,
|
|
1022201120104000,
|
|
1020101020101110,
|
|
12112120,
|
|
1020101020102220,
|
|
|
|
#GOGOEND
|
|
30700008,
|
|
|
|
,
|
|
,
|
|
,
|
|
#END
|
|
|
|
COURSE:Hard
|
|
LEVEL:5
|
|
BALLOON:36,18,12,7
|
|
SCOREINIT:670
|
|
SCOREDIFF:178
|
|
|
|
#START
|
|
2,
|
|
,
|
|
#SCROLL 1.35
|
|
#BPMCHANGE 86.86
|
|
2
|
|
#SCROLL 0.95
|
|
#BPMCHANGE 122.92
|
|
000,
|
|
#SCROLL 1.06
|
|
#BPMCHANGE 110.47
|
|
00200002,
|
|
#SCROLL 1.1
|
|
#MEASURE 5/4
|
|
#BPMCHANGE 105.85
|
|
000000500000000000000000000000000000000000000008
|
|
#SCROLL 1.16
|
|
#BPMCHANGE 101.58
|
|
000000000000,
|
|
#SCROLL 1.07
|
|
#MEASURE 4/4
|
|
#BPMCHANGE 110.1
|
|
00200002,
|
|
#SCROLL 1.11
|
|
#BPMCHANGE 106.14
|
|
0500,
|
|
,
|
|
000000000000000000000008000000000000000000000000,
|
|
#SCROLL 1.08
|
|
#BPMCHANGE 161.92
|
|
,
|
|
|
|
#SCROLL 1
|
|
#BPMCHANGE 175
|
|
30030300,
|
|
30030300,
|
|
30030030,
|
|
11013330,
|
|
7,
|
|
,
|
|
,
|
|
8,
|
|
|
|
#GOGOSTART
|
|
10112110,
|
|
10112230,
|
|
10112110,
|
|
11011120,
|
|
10112110,
|
|
10112230,
|
|
10112120,
|
|
1111120
|
|
|
|
#GOGOEND
|
|
1,
|
|
|
|
01101020,
|
|
10110201,
|
|
01101020,
|
|
10110201,
|
|
01202020,
|
|
11102201,
|
|
01202020,
|
|
500000000000000000000008000000000000000000100000,
|
|
|
|
01101020,
|
|
10110201,
|
|
01102020,
|
|
10220201,
|
|
01202020,
|
|
11102207,
|
|
,
|
|
00000800,
|
|
|
|
11122011,
|
|
12011120,
|
|
11120220,
|
|
10201100,
|
|
11122011,
|
|
12011120,
|
|
11120220,
|
|
11102010,
|
|
|
|
500000000000000000000000000000000000000000000008,
|
|
00111201,
|
|
01210121,
|
|
01221205,
|
|
000000000000000000000000000000000000000000000008,
|
|
00111209,
|
|
09,
|
|
8,
|
|
|
|
#GOGOSTART
|
|
10211201,
|
|
01210102,
|
|
01210201,
|
|
01210105,
|
|
000000000000000000000000000000000000000008000000,
|
|
00210105,
|
|
,
|
|
000000000000000000000008000000000000000000000000,
|
|
|
|
10211201,
|
|
01210102,
|
|
01210201,
|
|
01210105,
|
|
000000000000000000000000000000000000000008000000,
|
|
00210105,
|
|
000000000000000000000000000000000000000008000000,
|
|
|
|
#GOGOEND
|
|
,
|
|
|
|
10201120,
|
|
10201120,
|
|
20201220,
|
|
10201122,
|
|
10201120,
|
|
10201120,
|
|
20201120,
|
|
10201240,
|
|
|
|
#GOGOSTART
|
|
10112110,
|
|
10112210,
|
|
10112110,
|
|
11011140,
|
|
10112110,
|
|
10112210,
|
|
10112120,
|
|
|
|
#GOGOEND
|
|
30700008,
|
|
|
|
,
|
|
,
|
|
,
|
|
#END
|
|
|
|
COURSE:Normal
|
|
LEVEL:4
|
|
BALLOON:27,14,9,5
|
|
SCOREINIT:670
|
|
SCOREDIFF:190
|
|
|
|
#START
|
|
2,
|
|
,
|
|
#SCROLL 1.35
|
|
#BPMCHANGE 86.86
|
|
2
|
|
#SCROLL 0.95
|
|
#BPMCHANGE 122.92
|
|
000,
|
|
#SCROLL 1.06
|
|
#BPMCHANGE 110.47
|
|
00200002,
|
|
#SCROLL 1.1
|
|
#MEASURE 5/4
|
|
#BPMCHANGE 105.85
|
|
000000500000000000000000000000000000000000000008
|
|
#SCROLL 1.16
|
|
#BPMCHANGE 101.58
|
|
000000000000,
|
|
#SCROLL 1.07
|
|
#MEASURE 4/4
|
|
#BPMCHANGE 110.1
|
|
00200002,
|
|
#SCROLL 1.11
|
|
#BPMCHANGE 106.14
|
|
0500,
|
|
,
|
|
000000000000000000000008000000000000000000000000,
|
|
#SCROLL 1.08
|
|
#BPMCHANGE 161.92
|
|
,
|
|
|
|
#SCROLL 1
|
|
#BPMCHANGE 175
|
|
30030300,
|
|
30030300,
|
|
30030030,
|
|
0033,
|
|
7,
|
|
,
|
|
,
|
|
8,
|
|
|
|
#GOGOSTART
|
|
10101110,
|
|
10101130,
|
|
1121,
|
|
10011020,
|
|
10101110,
|
|
10101130,
|
|
1122,
|
|
1010110
|
|
|
|
#GOGOEND
|
|
1,
|
|
|
|
0110,
|
|
10010101,
|
|
0110,
|
|
10010101,
|
|
01000000,
|
|
10002001,
|
|
01000000,
|
|
500000000000000000000008000000000000000000100000,
|
|
|
|
0110,
|
|
10010101,
|
|
0110,
|
|
20010101,
|
|
02,
|
|
10002007,
|
|
,
|
|
00000800,
|
|
|
|
1121,
|
|
2111,
|
|
10110110,
|
|
1110,
|
|
1121,
|
|
2111,
|
|
10110110,
|
|
1110,
|
|
|
|
500000000000000000000000000000000000000000000008,
|
|
00101101,
|
|
01010101,
|
|
00220205,
|
|
000000000000000000000000000000000000000000000008,
|
|
00101109,
|
|
09,
|
|
8,
|
|
|
|
#GOGOSTART
|
|
10110101,
|
|
00110101,
|
|
00110101,
|
|
00220205,
|
|
000000000000000000000000000000000000000008000000,
|
|
00220205,
|
|
,
|
|
000000000000000000000008000000000000000000000000,
|
|
|
|
10110101,
|
|
00110101,
|
|
00110101,
|
|
00220205,
|
|
000000000000000000000000000000000000000008000000,
|
|
00220205,
|
|
000000000000000000000000000000000000000008000000,
|
|
|
|
#GOGOEND
|
|
,
|
|
|
|
10200120,
|
|
10200120,
|
|
20200120,
|
|
10200120,
|
|
10200120,
|
|
10200120,
|
|
20200120,
|
|
10202240,
|
|
|
|
#GOGOSTART
|
|
10101110,
|
|
10101110,
|
|
1121,
|
|
10011040,
|
|
10101110,
|
|
10101110,
|
|
1122,
|
|
|
|
#GOGOEND
|
|
00700008,
|
|
|
|
,
|
|
,
|
|
,
|
|
#END
|
|
|
|
COURSE:Easy
|
|
LEVEL:2
|
|
BALLOON:22,12,7,4
|
|
SCOREINIT:920
|
|
SCOREDIFF:473
|
|
|
|
#START
|
|
2,
|
|
,
|
|
#SCROLL 1.35
|
|
#BPMCHANGE 86.86
|
|
2
|
|
#SCROLL 0.95
|
|
#BPMCHANGE 122.92
|
|
000,
|
|
#SCROLL 1.06
|
|
#BPMCHANGE 110.47
|
|
00200002,
|
|
#SCROLL 1.1
|
|
#MEASURE 5/4
|
|
#BPMCHANGE 105.85
|
|
000000500000000000000000000000000000000000000008
|
|
#SCROLL 1.16
|
|
#BPMCHANGE 101.58
|
|
000000000000,
|
|
#SCROLL 1.07
|
|
#MEASURE 4/4
|
|
#BPMCHANGE 110.1
|
|
00200002,
|
|
#SCROLL 1.11
|
|
#BPMCHANGE 106.14
|
|
0500,
|
|
,
|
|
000000000000000000000008000000000000000000000000,
|
|
#SCROLL 1.08
|
|
#BPMCHANGE 161.92
|
|
,
|
|
|
|
#SCROLL 1
|
|
#BPMCHANGE 175
|
|
30030000,
|
|
3,
|
|
30030030,
|
|
03,
|
|
7,
|
|
,
|
|
,
|
|
8,
|
|
|
|
#GOGOSTART
|
|
11,
|
|
11,
|
|
1011,
|
|
,
|
|
11,
|
|
11,
|
|
1011,
|
|
0000000
|
|
|
|
#GOGOEND
|
|
1,
|
|
|
|
01,
|
|
10000001,
|
|
01,
|
|
10000002,
|
|
,
|
|
20000002,
|
|
,
|
|
500000000000000000000008000000000000000000100000,
|
|
|
|
01,
|
|
10000002,
|
|
02,
|
|
20000001,
|
|
,
|
|
10000007,
|
|
,
|
|
00000800,
|
|
|
|
1,
|
|
11,
|
|
1,
|
|
11,
|
|
1,
|
|
11,
|
|
1,
|
|
22,
|
|
|
|
500000000000000000000000000000000000000000000008,
|
|
00000001,
|
|
00010001,
|
|
00000005,
|
|
000000000000000000000000000000000000000000000008,
|
|
00000009,
|
|
09,
|
|
8,
|
|
|
|
#GOGOSTART
|
|
10010001,
|
|
00000001,
|
|
00010001,
|
|
00000005,
|
|
000000000000000000000000000000000000000008000000,
|
|
00000005,
|
|
,
|
|
000000000000000000000008000000000000000000000000,
|
|
|
|
10010001,
|
|
00000002,
|
|
00020002,
|
|
00000005,
|
|
000000000000000000000000000000000000000008000000,
|
|
00000005,
|
|
000000000000000000000000000000000000000008000000,
|
|
|
|
#GOGOEND
|
|
,
|
|
|
|
11,
|
|
1110,
|
|
11,
|
|
1,
|
|
22,
|
|
2220,
|
|
22,
|
|
2,
|
|
|
|
#GOGOSTART
|
|
11,
|
|
11,
|
|
1011,
|
|
,
|
|
11,
|
|
11,
|
|
1011,
|
|
|
|
#GOGOEND
|
|
00700008,
|
|
|
|
,
|
|
,
|
|
,
|
|
#END |