forked from ESE/ESE
368 lines
5.0 KiB
Plaintext
368 lines
5.0 KiB
Plaintext
//TJADB Project
|
|
TITLE:New Stranger
|
|
TITLEJA:New Stranger
|
|
SUBTITLE:--sora tob sakana/Hi-Score Girl
|
|
SUBTITLEJA:「ハイスコアガール」より
|
|
BPM:190
|
|
WAVE:New Stranger.ogg
|
|
OFFSET:-0.418
|
|
DEMOSTART:55.510
|
|
BGMOVIE:New Stranger.mp4
|
|
|
|
COURSE:Oni
|
|
LEVEL:8
|
|
BALLOON:8,10,4,4
|
|
SCOREINIT:670
|
|
SCOREDIFF:178
|
|
NOTESDESIGNER3:Kawagen Collagen
|
|
|
|
|
|
#START
|
|
|
|
|
|
3000112211222030,
|
|
0030222220400400,
|
|
3000111211121040,
|
|
0040004000400400,
|
|
3000122211222030,
|
|
0030111220400400,
|
|
3000700000008040,
|
|
04000000,
|
|
20112101,
|
|
0010101000121000,
|
|
11112101,
|
|
0010001020001011,
|
|
1011100020100010,
|
|
0010001020121020,
|
|
1010201012201010,
|
|
2010101020202222,
|
|
00102001,
|
|
10210101,
|
|
11211121,
|
|
0012112211212121,
|
|
10102001,
|
|
10210101,
|
|
11212011,
|
|
01010110,
|
|
00102001,
|
|
10210101,
|
|
11112111,
|
|
0012221222102120,
|
|
10002001,
|
|
01202100,
|
|
10110101,
|
|
00202101,
|
|
1001001020100010,
|
|
01112220,
|
|
00102201,
|
|
0010100020020012,
|
|
1000101020100010,
|
|
01002100,
|
|
1001101020001000,
|
|
0000100020112210,
|
|
2000202000201020,
|
|
0010201210102000,
|
|
10211123,
|
|
04030000,
|
|
|
|
#GOGOSTART
|
|
1110201000102010,
|
|
0010201210102010,
|
|
11211121,
|
|
0010201210102110,
|
|
1110201000102011,
|
|
1110201210102050,
|
|
000008000000200000500000000008000000200000500008,
|
|
000000200000200000100200100000002000000020002000,
|
|
433434,
|
|
334433,
|
|
1110201000102010,
|
|
0010201210102110,
|
|
1110201000102010,
|
|
0010201210102070,
|
|
00008021,
|
|
0010201210202012,
|
|
11210121,
|
|
0010201000102022,
|
|
|
|
#GOGOEND
|
|
1000112211222010,
|
|
0010221220200200,
|
|
1000111211121010,
|
|
0010001000201200,
|
|
1000122211222010,
|
|
0010221220200200,
|
|
10202002,
|
|
07082708,
|
|
|
|
|
|
#END
|
|
|
|
|
|
COURSE:Hard
|
|
LEVEL:7
|
|
BALLOON:6,7,10,3,3
|
|
SCOREINIT:770
|
|
SCOREDIFF:225
|
|
NOTESDESIGNER2:Kawagen Collagen
|
|
|
|
|
|
#START
|
|
|
|
|
|
30000003,
|
|
0030000000400400,
|
|
30000004,
|
|
0040004000400400,
|
|
30000003,
|
|
0030000000400400,
|
|
30700084,
|
|
04000000,
|
|
20112101,
|
|
01110110,
|
|
11112101,
|
|
0010001020001011,
|
|
11102101,
|
|
01012112,
|
|
11211211,
|
|
21112222,
|
|
00102001,
|
|
10210101,
|
|
11211121,
|
|
01000000,
|
|
00102001,
|
|
10210101,
|
|
11212011,
|
|
01010110,
|
|
00102001,
|
|
10210101,
|
|
11112111,
|
|
0010001000100100,
|
|
10002001,
|
|
01202100,
|
|
10110101,
|
|
00202101,
|
|
1001001020100010,
|
|
01112220,
|
|
00102201,
|
|
0010100020020020,
|
|
00112101,
|
|
01002100,
|
|
10102010,
|
|
000000000000100000000000200000500000000008000000,
|
|
10210101,
|
|
01211120,
|
|
00211103,
|
|
04030000,
|
|
|
|
#GOGOSTART
|
|
10210121,
|
|
01210121,
|
|
11211121,
|
|
000000100000200000500000000008000000000000100000,
|
|
1110101000102010,
|
|
01201125,
|
|
000008000000200000500000000008000000200000500008,
|
|
000200200000100020002000,
|
|
433434,
|
|
334433,
|
|
10210121,
|
|
01201120,
|
|
10210121,
|
|
01210127,
|
|
00008021,
|
|
01210220,
|
|
11210121,
|
|
01210109,
|
|
|
|
#GOGOEND
|
|
,
|
|
8,
|
|
0000100011100010,
|
|
000000100000000000500000000008000000200000000000,
|
|
0000100011100010,
|
|
000000100000000000500000000000000000000008000000,
|
|
00202001,
|
|
07081708,
|
|
|
|
|
|
#END
|
|
|
|
|
|
COURSE:Normal
|
|
LEVEL:6
|
|
BALLOON:5,7,6
|
|
SCOREINIT:740
|
|
SCOREDIFF:233
|
|
|
|
|
|
#START
|
|
|
|
|
|
30000003,
|
|
0030000000300300,
|
|
30000003,
|
|
0030003000300300,
|
|
30000003,
|
|
0030003000300300,
|
|
30000004,
|
|
04000000,
|
|
20101101,
|
|
01010110,
|
|
10110101,
|
|
01011011,
|
|
10101101,
|
|
01010110,
|
|
10010010,
|
|
01102020,
|
|
00102000,
|
|
10110000,
|
|
11102011,
|
|
01000000,
|
|
00102000,
|
|
10110100,
|
|
11102011,
|
|
01010110,
|
|
00102000,
|
|
10110100,
|
|
11101022,
|
|
02020000,
|
|
10002001,
|
|
01102200,
|
|
10110101,
|
|
00202200,
|
|
11010101,
|
|
01102020,
|
|
00102001,
|
|
0010100020020020,
|
|
00110101,
|
|
01002200,
|
|
10102010,
|
|
000000000000100000000000500000000000000008000000,
|
|
10110101,
|
|
01102020,
|
|
00101103,
|
|
04030000,
|
|
|
|
#GOGOSTART
|
|
10110102,
|
|
02020000,
|
|
10111011,
|
|
000000100000000000500000000008000000000000000000,
|
|
10110102,
|
|
02202011,
|
|
00220011,
|
|
000200200000200020002000,
|
|
333333,
|
|
333333,
|
|
10110102,
|
|
02202200,
|
|
10110102,
|
|
02220207,
|
|
00008001,
|
|
01110000,
|
|
10110102,
|
|
02220209,
|
|
|
|
#GOGOEND
|
|
,
|
|
8,
|
|
00201001,
|
|
000000100000000000500000000000000000000008000000,
|
|
00201001,
|
|
000000100000000000500000000000000000000008000000,
|
|
00201002,
|
|
07000008,
|
|
|
|
|
|
#END
|
|
|
|
|
|
COURSE:Easy
|
|
LEVEL:4
|
|
BALLOON:5,6
|
|
SCOREINIT:760
|
|
SCOREDIFF:305
|
|
|
|
|
|
#START
|
|
|
|
|
|
30000003,
|
|
03000000,
|
|
30000006,
|
|
000000000000000000000000000000000000000000000008,
|
|
00000003,
|
|
30000004,
|
|
04000000,
|
|
00101010,
|
|
000000500000000000000000000000000008000000000000,
|
|
10101005,
|
|
000000000000000000000000000000000008000000000000,
|
|
10101005,
|
|
000000000000000000000000000000000008000000000000,
|
|
10010010,
|
|
01002020,
|
|
00101000,
|
|
10010000,
|
|
10101002,
|
|
02000000,
|
|
00101000,
|
|
10010000,
|
|
10101002,
|
|
02020020,
|
|
00101000,
|
|
10010000,
|
|
10101002,
|
|
02020000,
|
|
10002001,
|
|
00101000,
|
|
10010001,
|
|
00202000,
|
|
10010101,
|
|
00202000,
|
|
00101001,
|
|
00100000,
|
|
00100101,
|
|
01002000,
|
|
10101050,
|
|
000000000000000000000000000008000000000000000000,
|
|
10010001,
|
|
00101010,
|
|
00202006,
|
|
000000000000000008000000000000000000000000000000,
|
|
|
|
#GOGOSTART
|
|
10010001,
|
|
01010000,
|
|
10101002,
|
|
02020000,
|
|
10010101,
|
|
00101005,
|
|
000000000000000000000000000000000000000000000008,
|
|
01,
|
|
33,
|
|
33,
|
|
10010101,
|
|
00202000,
|
|
10010101,
|
|
00200005,
|
|
000000000000000000000008000000000000000000500000,
|
|
000000000000000000000008000000000000000000000000,
|
|
10010101,
|
|
00020009,
|
|
|
|
#GOGOEND
|
|
,
|
|
8,
|
|
00202001,
|
|
000000000000000000500000000000000000000008000000,
|
|
00202001,
|
|
000000000000000000500000000000000000000008000000,
|
|
00202000,
|
|
07000008,
|
|
|
|
|
|
#END
|
|
|