Files
2023-06-15 19:15:39 -05:00

225 lines
6.5 KiB
Plaintext

//TJADB Project
TITLE:OLA‽
TITLEJA:FIXME
SUBTITLE:--Yuzu/Crayon Shin-Chan
BPM:115
WAVE:OLA!!!.ogg
OFFSET:-2.689
DEMOSTART:41.547
COURSE:Oni
LEVEL:7
BALLOON:6
SCOREINIT:1070
SCOREDIFF:300
#START
#MEASURE 2/4
7008,
#GOGOSTART
#MEASURE 4/4
100000000200100000200000100200000200100000200000,
300000300000300000300000200000200100000000100000,
#MEASURE 3/4
000000000000000000000000000000000000,
#GOGOEND
#MEASURE 4/4
100000200100000200000100000200000200100000200000,
300000000300000000300000000000000200100000200000,
100000200100000200000100200000200200100100200000,
300000000300000000300000200200200200200000200000,
100000100200200100000100200000200100000200000000,
100200000200100000200000100200000200100000200000,
#MEASURE 2/4
000000100000000000100000,
#MEASURE 4/4
200000202020200000202020200000100000000000100000,
200000202020200000202020200000100000200000200000,
100000202020200000202020200000100000200000200000,
100000202020200000202020200000100100200200100000,
300000000300000000300000000000200200100100200000,
300000000300000000300000000000100000200000100000,
100000200200100000200000100200000200100000200000,
100000200100000200100000000000000000200200100200,
100000100000200000100000202020200000200000300000,
#GOGOSTART
300000000100100000200000100100000100200000300000,
300000000100100000200000100100000100200000100000,
100000000100100000200000100000200100000000200000,
100000200100000000200000100200100000200000300000,
300000000100100000200000100100000100200000300000,
300000000000100010002000100010001000100010001000,
500008000000100000000000000000300000400000000000,
100100100000200200200000100000200100000200100000,
202020202020200000300000300000000000000000000000,
#GOGOEND
#END
COURSE:Hard
LEVEL:6
SCOREINIT:1190
SCOREDIFF:340
#START
#MEASURE 2/4
000000000000000000000000,
#MEASURE 4/4
#GOGOSTART
100000000000100000200000100100000100200000200000,
300000300000300000300000200000000100000000100000,
#MEASURE 3/4
000000000000200200200000200000200000,
#GOGOEND
#MEASURE 4/4
100000000000100000200000100100000100200000200000,
300000000300000000300000000000000100100000100000,
100000000000100000200000100100000100200000200000,
300000000300000000300000000000000000000000000000,
100100100000200000200000100100100000200000200000,
100100000100100000100000100100000100100000100000,
#MEASURE 2/4
000000200000000000200000,
#MEASURE 4/4
500000000000000000000008000000200000000000200000,
500000000000000000000008000000100000200000200000,
500000000000000000000008000000100000200000500000,
000000000000000000000008000000100100200000200000,
300000000300000000300000000000200200200000200000,
300000000300000000300000000100000000200000100100,
000000000000000200200100100000000000000000100000,
100000000200000000200000000000000000000000000000,
100000100000200000100000200200200000200000300000,
#GOGOSTART
300000000100100000200000100000100100000000300000,
300000000100100000200000100000100100000000200000,
100000000100100000200000100000100100000000200000,
100000000100000000100000200200200000200000300000,
300000000100100000200000100000100100000000300000,
300000000100100000200000100010001000100010001000,
100000000000100000000000000000300000400000000000,
100100100000200200200000100000000100000000500000,
000000000008000000300000300000000000000000000000,
#END
COURSE:Normal
LEVEL:4
BALLOON:7
SCOREINIT:1120
SCOREDIFF:420
#START
#MEASURE 2/4
000000000000000000000000,
#MEASURE 4/4
#GOGOSTART
100000000000100000200000100000000000100000200000,
300000300000300000300000100000000100000000100000,
#MEASURE 3/4
000000000000000000000000000000000000,
#GOGOEND
#MEASURE 4/4
100000000000100000200000100000000000200000200000,
300000000300000000300000000000000000000000000000,
100000000000100000200000100000000000200000200000,
300000000300000000300000000000000000000000000000,
100000000000100000200000100000000000200000200000,
300000000300000000300000400000000400000000400000,
#MEASURE 2/4
000000000000000000000000,
#MEASURE 4/4
500000000000000000000008000000000000000000000000,
500000000000000000000008000000000000000000000000,
500000000000000000000008000000000000000000000000,
500000000000000000000008000000000000000000000000,
300000000300000000300000000000200000200000000000,
300000000300000000300000000200000200000000000000,
100000000000200000000000100000000000200000000000,
300000000300000000300000000000000000000000000000,
100000100000100000100000000000000000000000300000,
#GOGOSTART
300000000000200000200000100000100000000000300000,
300000000000200000200000100000100000000000100000,
100000000000200000200000100000100000000000100000,
100000000200000000100000100000000000000000300000,
300000000000200000200000100000100000000000300000,
300000000000200000200000700000000000000000000800,
000000000200000000000000000000300000300000000000,
100000000000200000200000300000000300000000600000,
000000000000000008000000300000300000000000000000,
#END
COURSE:Easy
LEVEL:4
BALLOON:5,6
SCOREINIT:1180
SCOREDIFF:730
#START
#MEASURE 2/4
000000000000000000000000,
#MEASURE 4/4
#GOGOSTART
100000000000000000000000100000000000000000000000,
300000000000300000000000300000000300000000300000,
#MEASURE 3/4
000000000000000000000000000000000000,
#GOGOEND
#MEASURE 4/4
100000000000000000000000100000000000100000000000,
300000000300000000300000000000000000000000000000,
100000000000000000000000100000000000100000000000,
300000000300000000300000000000000000000000000000,
200000000000000000000000200000000000200000000000,
900000000000000000000000000000000000800000000000,
#MEASURE 2/4
000000000000000000000000,
#MEASURE 4/4
500000000000000000000000000000000008000000000000,
500000000000000000000000000000000008000000000000,
500000000000000000000000000000000008000000000000,
500000000000000000000000000000000008000000000000,
300000000300000000300000000000000000000000000000,
300000000300000000300000000000000000000000000000,
100000000000000000000000100000000000000000000000,
300000000300000000600000000000000000000000000800,
000000000000000000000000000000000000000000300000,
#GOGOSTART
300000000000100000000000100000000000000000300000,
300000000000100000000000100000000000000000100000,
100000000000100000000000100000000000000000100000,
100000000000100000000000100000000000000000300000,
300000000000100000000000100000000000000000300000,
300000000000100000000000900000000000000000000000,
000000000000000000000000000000000800000000000000,
100000000000100000000000300000000300000000600000,
000000000008000000300000300000000000000000000000,
#END