forked from ESE/ESE
487 lines
14 KiB
Plaintext
487 lines
14 KiB
Plaintext
//TJADB Project
|
|
TITLE:Odoru Ponpokirin
|
|
TITLEJA:おどるポンポコリン
|
|
SUBTITLE:--B.B.Queens/Chibi Maruko-chan
|
|
SUBTITLEJA:「ちびまる子ちゃん」より
|
|
BPM:140
|
|
WAVE:Odoru Ponpokirin.ogg
|
|
OFFSET:-1.752
|
|
DEMOSTART:41.187
|
|
|
|
COURSE:Oni
|
|
LEVEL:2
|
|
|
|
|
|
#START
|
|
|
|
|
|
000000000000000000000000000000000000000000000000,
|
|
100000000000100000100000100000000000100000100000,
|
|
000000100000000000100000100000100000100000000000,
|
|
100000000000100000100000100000000000100000200000,
|
|
000000200000200000000000200000000000200000000000,
|
|
100000100000100000000000100000000000100000000000,
|
|
100000100000100000000000400000000000400000000000,
|
|
100000000000200000100100100000000000200000100100,
|
|
100000100000000000500000000000000008000000100000,
|
|
000000100100100000200000100100100000000000100000,
|
|
100000100000000000300000000000000000000000000000,
|
|
100000000000200000100100100000000000200000100100,
|
|
100000100000000000100000000000000000000000100000,
|
|
000000100100100000200000200000100100100000000000,
|
|
100000100000000000300000000000000000000000000000,
|
|
000000000000000000000000000000200000200000000000,
|
|
100000100000100100100000000000100000000000000000,
|
|
00000220,
|
|
1010111000100000,
|
|
000000000000100000000000200000200000000000100000,
|
|
000000000000100000000000200000200000000000500000,
|
|
000000000000000000000000000000000000000000000008,
|
|
000000100000000000100000100100100000100000200000,
|
|
100000000000100100100000200000000000100100100000,
|
|
000000100000000000100000200000100000100000000000,
|
|
100000000000100100100000100000000000200200200000,
|
|
000000100000000000100000200000100000100000000000,
|
|
100000000000100100100000100000000000200200200000,
|
|
000000100000000000100100100000100000100000200000,
|
|
500000000000000000000000000000000008000000000000,
|
|
000000100000000000100000100000200000100000200000,
|
|
100000000000100100100000100000000000200200200000,
|
|
000000100000000000100000200000100000100000000000,
|
|
100000000000100100100000100000000000200200200000,
|
|
000000100000100000100000100000100100100000000000,
|
|
100000000000100100100000200000000000000000100000,
|
|
000000100000100000200000100000200000100000500000,
|
|
000000000000000000000000000000000000000000000008,
|
|
000000000000000000000000400000000000400000000000,
|
|
100000000000200000100100100000000000200000100100,
|
|
100000100000000000500000000000000008000000100000,
|
|
000000100100100000200000100100100000000000100000,
|
|
200000100000000000300000000000000000000000000000,
|
|
100000000000200000100100100000000000200200200000,
|
|
100000100000200000100000000000000000000000100000,
|
|
000000100100100000200000200000100100100000000000,
|
|
100000100000000000300000000000000000000000100000,
|
|
000000100000100000000000100000000000000000000000,
|
|
100000100000100100100000000000100000000000100000,
|
|
000000100000100000000000100000000000000000000000,
|
|
100000100000100100100000000000100000000000000000,
|
|
000000000000100000000000200000200000000000100000,
|
|
000000000000100000000000200000200000000000500000,
|
|
000000000000000000000000000000000000000000000008,
|
|
000000100000000000100000100100100000100000200000,
|
|
100000000000100100100000100000000000100100100000,
|
|
000000100000000000100000200000100000100000000000,
|
|
100000000000100100100000100000000000200200200000,
|
|
000000100000000000100000200000100000100000000000,
|
|
100000000000100100100000100000000000200200200000,
|
|
000000100000000000100100100000100000100000200000,
|
|
500000000000000000000000000000000008000000000000,
|
|
000000100000000000100000100000200000100000200000,
|
|
100000000000100100100000100000000000200200200000,
|
|
000000100000000000100000200000100000100000000000,
|
|
100000000000100100100000100000000000200200200000,
|
|
000000100000100000100000100000100100100000000000,
|
|
100000000000100100100000200000000000000000100000,
|
|
000000100000100000200000100000200000100000500000,
|
|
000000000000000000000000000000000000000000000000,
|
|
000000000008000000000000000000000000000000000000,
|
|
|
|
|
|
#END
|
|
|
|
|
|
COURSE:Hard
|
|
LEVEL:2
|
|
SCOREINIT:490
|
|
SCOREDIFF:110
|
|
|
|
|
|
#START
|
|
|
|
|
|
,
|
|
10111011,
|
|
01011110,
|
|
10111012,
|
|
02202020,
|
|
11101010,
|
|
|
|
#BRANCHSTART p,75,90
|
|
#N
|
|
11104040,
|
|
10121012,
|
|
100000100000000000500000000000000008000000100000,
|
|
01101101,
|
|
11030000,
|
|
10121012,
|
|
11010001,
|
|
01101020,
|
|
11030001,
|
|
01101220,
|
|
11010101,
|
|
01101220,
|
|
11010100,
|
|
00102201,
|
|
00102205,
|
|
000000000000000000000000000000000000000000000008,
|
|
01011010,
|
|
10121011,
|
|
01011010,
|
|
10121022,
|
|
01011010,
|
|
10121022,
|
|
01011010,
|
|
500000000000000000000000000000000008000000000000,
|
|
01011000,
|
|
10121022,
|
|
01011010,
|
|
10121022,
|
|
0010101010111000,
|
|
10121001,
|
|
01101015,
|
|
000000000000000000000000000000000000000000000008,
|
|
0044,
|
|
10111012,
|
|
100000100000000000500000000000000008000000100000,
|
|
01101101,
|
|
10030000,
|
|
10111012,
|
|
11010001,
|
|
01101100,
|
|
11030001,
|
|
01101220,
|
|
11010101,
|
|
01101220,
|
|
11010100,
|
|
00102201,
|
|
00102205,
|
|
000000000000000000000000000000000000000000000008,
|
|
01011010,
|
|
10121022,
|
|
01011010,
|
|
10121022,
|
|
01011010,
|
|
10121022,
|
|
01011010,
|
|
500000000000000000000000000000000008000000000000,
|
|
01011010,
|
|
10121022,
|
|
01011010,
|
|
10121022,
|
|
0010101010111000,
|
|
10121001,
|
|
01101015,
|
|
,
|
|
000000000008000000000000000000000000000000000000,
|
|
|
|
#E
|
|
11104040,
|
|
10121012,
|
|
100000100000000000500000000000000008000000100000,
|
|
01101101,
|
|
11030000,
|
|
10121012,
|
|
11010001,
|
|
0110102,
|
|
11030001,
|
|
01101220,
|
|
11110101,
|
|
01101220,
|
|
11110100,
|
|
00102201,
|
|
00102205,
|
|
000000000000000000000000000000000000000000000008,
|
|
01011010,
|
|
10121012,
|
|
01012010,
|
|
10121022,
|
|
01012010,
|
|
10121022,
|
|
01011010,
|
|
500000000000000000000000000000000008000000000000,
|
|
01011010,
|
|
10121022,
|
|
01012010,
|
|
10121022,
|
|
0010101010111000,
|
|
10121001,
|
|
01101015,
|
|
000000000000000000000000000000000000000000000008,
|
|
0044,
|
|
10121012,
|
|
100000100000000000500000000000000008000000100000,
|
|
01101101,
|
|
11030000,
|
|
10121012,
|
|
11010001,
|
|
01101110,
|
|
11030001,
|
|
01101220,
|
|
11110101,
|
|
01101220,
|
|
11110100,
|
|
00102201,
|
|
00102205,
|
|
000000000000000000000000000000000000000000000008,
|
|
01011010,
|
|
10121022,
|
|
01012010,
|
|
10121022,
|
|
01012010,
|
|
10121022,
|
|
01011010,
|
|
500000000000000000000000000000000008000000000000,
|
|
01011010,
|
|
10121022,
|
|
01012010,
|
|
10121022,
|
|
0010101010111000,
|
|
10121001,
|
|
01101015,
|
|
,
|
|
000000000008000000000000000000000000000000000000,
|
|
|
|
#M
|
|
11104040,
|
|
1000201110002011,
|
|
100000100000000000500000000000000008000000100000,
|
|
0011102011100010,
|
|
11030000,
|
|
1000201110002011,
|
|
11010001,
|
|
0011102020111000,
|
|
11030001,
|
|
01101220,
|
|
1010111000100010,
|
|
01101220,
|
|
1010111000100000,
|
|
00102201,
|
|
00102205,
|
|
000000000000000000000000000000000000000000000008,
|
|
0010001011101020,
|
|
1000111020001110,
|
|
01012110,
|
|
1000111010002220,
|
|
01012110,
|
|
1000111010002220,
|
|
0010001110101020,
|
|
500000000000000000000000000000000008000000000000,
|
|
01011212,
|
|
1000111010002220,
|
|
01012110,
|
|
1000111010002220,
|
|
0010101010111000,
|
|
1000111020000010,
|
|
01121215,
|
|
000000000000000000000000000000000000000000000008,
|
|
0044,
|
|
1000201110002011,
|
|
100000100000000000500000000000000008000000100000,
|
|
0011102011100010,
|
|
21030000,
|
|
1000201110002220,
|
|
11210001,
|
|
0011102020111000,
|
|
11030001,
|
|
01101220,
|
|
1010111000100010,
|
|
01101220,
|
|
1010111000100000,
|
|
00102201,
|
|
00102205,
|
|
000000000000000000000000000000000000000000000008,
|
|
0010001011101020,
|
|
1000111010001110,
|
|
01012110,
|
|
1000111010002220,
|
|
01012110,
|
|
1000111010002220,
|
|
0010001110101020,
|
|
500000000000000000000000000000000008000000000000,
|
|
01011212,
|
|
1000111010002220,
|
|
01012110,
|
|
1000111010002220,
|
|
0010101010111000,
|
|
1000111020000010,
|
|
01121215,
|
|
,
|
|
000000000008000000000000000000000000000000000000,
|
|
|
|
#BRANCHEND
|
|
|
|
|
|
#END
|
|
|
|
|
|
COURSE:Normal
|
|
LEVEL:4
|
|
SCOREINIT:710
|
|
SCOREDIFF:180
|
|
|
|
|
|
#START
|
|
|
|
|
|
000000000000000000000000000000000000000000000000,
|
|
100000000000100000100000100000000000100000100000,
|
|
000000000000000000000000200000000000200000000000,
|
|
100000000000100000100000100000000000100000100000,
|
|
000000000000000000000000200000000000200000000000,
|
|
100000100000100000000000100000000000100000000000,
|
|
100000100000100000000000400000000000400000000000,
|
|
100000000000100000200000100000000000100000200000,
|
|
100000000000100000500000000000800000000000100000,
|
|
000000100000100000000000100000000000100000000000,
|
|
100000100000000000300000000000000000000000000000,
|
|
100000000000100000200000100000000000100000200000,
|
|
100000100000000000100000000000000000000000100000,
|
|
000000100000100000000000100000000000100000000000,
|
|
100000100000000000300000000000000000000000100000,
|
|
000000100000100000000000100000000000000000000000,
|
|
100000000000100000100000000000100000000000100000,
|
|
000000100000100000000000100000000000000000000000,
|
|
100000000000100000100000000000300000000000000000,
|
|
000000000000100000000000200000000000100000000000,
|
|
200000000000100000000000200000200000000000500000,
|
|
000000000000000000000000000000000000000000800000,
|
|
000000100000000000100000100000000000100000000000,
|
|
100000000000100000200000100000000000100000200000,
|
|
000000000000000000000000200000000000200000000000,
|
|
100000000000100000200000100000000000100000200000,
|
|
000000000000000000000000200000000000200000000000,
|
|
100000000000100000200000100000000000100000200000,
|
|
000000000000000000000000200000000000200000000000,
|
|
500000000000000000000000000000800000000000000000,
|
|
000000100000000000100000100000000000100000000000,
|
|
100000000000100000200000100000000000100000200000,
|
|
000000000000000000000000200000000000200000000000,
|
|
100000000000100000200000100000000000100000200000,
|
|
000000100000100000100000100000100100100000000000,
|
|
100000000000100000200000100000000000000000000000,
|
|
100000000000100000000000100000000000100000500000,
|
|
000000000000000000000000000000000000000000800000,
|
|
000000000000000000000000400000000000400000000000,
|
|
100000000000100000200000100000000000100000200000,
|
|
100000000000100000500000000000800000000000100000,
|
|
000000100000100000000000100000000000100000000000,
|
|
100000100000000000300000000000000000000000000000,
|
|
100000000000100000200000100000000000100000200000,
|
|
100000100000000000100000000000000000000000100000,
|
|
000000100000100000000000100000000000100000000000,
|
|
100000100000000000300000000000000000000000000000,
|
|
000000000000000000000000000000200000200000000000,
|
|
100000000000100000100000000000100000000000000000,
|
|
000000000000000000000000000000200000200000000000,
|
|
100000000000100000100000000000100000000000000000,
|
|
000000000000100000000000200000000000100000000000,
|
|
200000000000100000000000200000200000000000500000,
|
|
000000000000000000000000000000000000000000800000,
|
|
000000100000000000100000100000000000100000000000,
|
|
100000000000100000200000100000000000100000200000,
|
|
000000000000000000000000200000000000200000000000,
|
|
100000000000100000200000100000000000100000200000,
|
|
000000000000000000000000200000000000200000000000,
|
|
100000000000100000200000100000000000100000200000,
|
|
000000000000000000000000200000000000200000000000,
|
|
500000000000000000000000000000800000000000000000,
|
|
000000100000000000100000100000000000100000000000,
|
|
100000000000100000200000100000000000100000200000,
|
|
000000000000000000000000200000000000200000000000,
|
|
100000000000100000200000100000000000100000200000,
|
|
000000100000100000100000100000100100100000000000,
|
|
100000000000100000200000100000000000000000000000,
|
|
100000000000100000000000100000000000100000500000,
|
|
000000000000000000000000000000000000000000000000,
|
|
000000800000000000000000000000000000000000000000,
|
|
|
|
|
|
#END
|
|
|
|
|
|
COURSE:Easy
|
|
LEVEL:4
|
|
SCOREINIT:790
|
|
SCOREDIFF:220
|
|
|
|
|
|
#START
|
|
|
|
|
|
000000000000000000000000000000000000000000000000,
|
|
000000000000100000000000000000000000100000000000,
|
|
000000000000100000000000000000000000100000000000,
|
|
000000000000100000000000000000000000100000000000,
|
|
000000000000100000000000000000000000100000000000,
|
|
000000000000100000000000000000000000100000000000,
|
|
000000000000100000000000200000000000200000000000,
|
|
000000000000100000000000100000000000100000000000,
|
|
000000000000100000000000100000000000100000000000,
|
|
000000000000100000000000100000000000100000000000,
|
|
000000000000100000000000100000000000200000000000,
|
|
000000000000100000000000100000000000100000000000,
|
|
000000000000100000000000100000000000100000000000,
|
|
000000000000100000000000100000000000100000000000,
|
|
300000000000000000000000000000000000000000000000,
|
|
000000000000100000000000100000000000000000000000,
|
|
000000000000200000000000000000000000200000000000,
|
|
000000000000100000000000100000000000000000000000,
|
|
000000000000200000000000000000000000200000000000,
|
|
000000000000100000000000000000000000100000000000,
|
|
000000000000100000000000100000000000100000000000,
|
|
500000000000000000000000800000000000000000000000,
|
|
200000000000000000000000000000000000000000000000,
|
|
100000000000100000100000100000000000100000100000,
|
|
000000000000100000000000000000000000100000000000,
|
|
100000000000100000100000100000000000100000100000,
|
|
000000000000100000000000000000000000100000000000,
|
|
100000000000100000100000100000000000100000100000,
|
|
000000000000100000000000000000000000100000000000,
|
|
500000000000000000000000000000800000000000000000,
|
|
000000000000000000000000200000000000200000000000,
|
|
100000000000100000100000100000000000100000100000,
|
|
000000000000100000000000000000000000100000000000,
|
|
100000000000100000100000100000000000100000100000,
|
|
000000000000200000000000100000100000100000000000,
|
|
100000000000100000100000100000000000000000000000,
|
|
000000000000100000000000100000000000100000000000,
|
|
500000000000000000000000000000000000000000800000,
|
|
000000000000000000000000200000000000200000000000,
|
|
000000000000100000000000100000000000100000000000,
|
|
000000000000100000000000100000000000100000000000,
|
|
000000000000100000000000100000000000100000000000,
|
|
000000000000100000000000100000000000200000000000,
|
|
000000000000100000000000100000000000100000000000,
|
|
000000000000100000000000100000000000100000000000,
|
|
000000000000100000000000100000000000100000000000,
|
|
300000000000000000000000000000000000000000000000,
|
|
000000000000100000000000100000000000000000000000,
|
|
000000000000200000000000000000000000200000000000,
|
|
000000000000100000000000100000000000000000000000,
|
|
000000000000200000000000000000000000200000000000,
|
|
000000000000100000000000000000000000100000000000,
|
|
000000000000100000000000100000000000100000000000,
|
|
500000000000000000000000800000000000000000000000,
|
|
200000000000000000000000000000000000000000000000,
|
|
100000000000100000100000100000000000100000100000,
|
|
000000000000100000000000000000000000100000000000,
|
|
100000000000100000100000100000000000100000100000,
|
|
000000000000100000000000000000000000100000000000,
|
|
100000000000100000100000100000000000100000100000,
|
|
000000000000100000000000000000000000100000000000,
|
|
500000000000000000000000000000800000000000000000,
|
|
000000000000000000000000200000000000200000000000,
|
|
100000000000100000100000100000000000100000100000,
|
|
000000000000100000000000000000000000100000000000,
|
|
100000000000100000100000100000000000100000100000,
|
|
000000000000200000000000100000100000100000000000,
|
|
100000000000100000100000100000000000000000000000,
|
|
000000000000100000000000100000000000100000000000,
|
|
500000000000000000000000000000000000000000000000,
|
|
000000800000000000000000000000000000000000000000,
|
|
|
|
|
|
#END
|
|
|