Files
2023-06-15 19:15:39 -05:00

260 lines
9.3 KiB
Plaintext

//TJADB Project
TITLE:One day
TITLEJA:One day
SUBTITLE:--The ROOTLESS/ONE PIECE
SUBTITLEJA:「ワンピース」より
BPM:89
WAVE:One day.ogg
OFFSET:-2.787
DEMOSTART:45.736
COURSE:Oni
LEVEL:6
BALLOON:18
SCOREINIT:840
SCOREDIFF:233
#START
100000000100100000200000100100100000200000000000,
100000000200200000200200200000100000200000100100,
100000000100100000200000100100100000200000000000,
100000000200200000200200200000100000200000100100,
100000000100200000100000100100200000200000000000,
100000000100200000200200200000100000200000100100,
100000000100200000100000100100200000200000200200,
100000000100200000100000100100200000200000200200,
100000000100200000200000100100200000200000000000,
100100200000200200100000100000000100200000200000,
100000000100200000200000100100200000200000000000,
700000000000000000000000000000000000800000000000,
100000000100200000200000100100200000200000000000,
100200200000200200100000100000000100200000000000,
100000000100200000200200000200200000200000200000,
500000000000000000000000000008000000000000000000,
#GOGOSTART
300000000100200000100100200000100000200200100000,
100100200000100200200000100200000200100000000000,
100000000100200000100100200000100000200200100000,
500000000000000000000000000000000008000000000000,
300000000100200000100100200000100000200200100000,
100100200000100200200000100200000200100000000000,
100000000100200000100100200000100000200200100000,
500000000000000000000000000000000008000000000000,
#GOGOEND
100000000000200000000000100000200000100000200000,
100000000100200000200000100000200100100000200000,
100000000000200000000000100000200000100000200000,
100000000100200000200000100000200100100000200000,
100000000100100000200000100000000100100000200000,
100000000100200000100100100000200100000000200000,
100000200000000000200000100000200000100000200000,
500000000000000000000000000008000000000000000000,
600000000000000000000000000008000000000000000000,
#GOGOSTART
300000000100200000100100100100200000100000200100,
100000200000100100200000100200000200100000200000,
100000000100200000100100200000100000200100100000,
100000200000100100200000100000200100000100200000,
300000000100200000100100100100200000200200100000,
300000000000300000000000300000000200100000200000,
100000000100200000100100200000100000200100100000,
100000200000100100200000100000200100000100200000,
100000200000100100200000100000200000100100200000,
100100200200100100200200100000000000000000000000,
#GOGOEND
#END
COURSE:Hard
LEVEL:5
BALLOON:15
SCOREINIT:890
SCOREDIFF:265
#START
100000000000200000000000100100100000200000000000,
100000000000200000000000200200200000200000000000,
100000000000200000000000100100100000200000000000,
100000000000200000000000200200200000200000000000,
100000000000200000000000100100100000200000000000,
100000000000200000000000100000200000000000200000,
100000000000200000000000100100100000200000000000,
100000000000200000000000100000000000000000000000,
100000000100100000000000100100100000200000000000,
100100100000100100100000100000000000200000000000,
100000000100100000000000100100100000200000000000,
700000000000000000000000000000000800000000000000,
100000000200200000000000200200200000200000000000,
200200200000200200200000100000000000200000000000,
100000200000000000200000100000200000100000200000,
500000000000000000000000000000000800000000000000,
#GOGOSTART
100000000100100000100000100100100000200000000000,
100000200000100000200000100000000100100000000000,
100000000100100000100000100100100000200000000000,
500000000000000000000000000000000800000000000000,
100000000100100000200000100100100000200000000000,
100000200000100000200000100000000200200000000000,
100000000100100000200000100100100000200000000000,
500000000000000000000000000800000000000000000000,
#GOGOEND
100000000000200000000000100000100000200000000000,
100000000000200000000000100000200000000000200000,
100000000000200000000000100000100000200000000000,
100000000000200000000000200200200000200200200000,
100000000000200000000000100000100000200000000000,
100000200000100000200000100000200200200000000000,
100000200000000000200000100000200000100000200000,
500000000000000000000000000800000000000000000000,
600000000000000000000000000800000000000000000000,
#GOGOSTART
100000000200200000200000100100100000200000000000,
100000200000100000200000100000000200200000000000,
100000000200200000200000100100100000200000000000,
100000200000100000200000100000000200200000000000,
100000000100200000100000100100100000200000000000,
300000000000300000000000300000000100100000000000,
100000000100200000100000100100100000200000200000,
100000000100200000100000100100100000200000200000,
100000000000200000000000300000300000400000300000,
300000300000600000000000000000000000000000000800,
#GOGOEND
#END
COURSE:Normal
LEVEL:3
SCOREINIT:1170
SCOREDIFF:520
#START
100000000000100000000000100000000000000000000000,
100000000000000000000000200000000000200000000000,
100000000000100000000000100000000000000000000000,
100000000000000000000000200000000000200000000000,
100000000000100000000000100000000000000000000000,
100000000000000000000000200000000000200000000000,
100000000000000000000000200000000000000000000000,
500000000000000000800000000000000000000000000000,
100000000000200000000000100000000000000000000000,
100000000000100000100000100000000000000000000000,
100000000000200000000000100000000000000000000000,
500000000000000000800000000000000000000000000000,
100000000000200000000000100000000000000000000000,
100000000000100000100000100000000000000000000000,
100000000000200000000000100000000000200000000000,
500000000000000000000000800000000000000000000000,
#GOGOSTART
100000000000100000000000100000000000000000000000,
100000100000100000000000100000100000100000000000,
200000000000200000000000200000000000000000000000,
500000000000000000800000000000000000000000000000,
100000000000100000000000100000000000000000000000,
100000100000100000000000100000100000100000000000,
200000000000200000000000200000000000000000000000,
500000000000000000000000800000000000000000000000,
#GOGOEND
100000000000000000000000200000000000000000000000,
100000000000000000000000100000100000100000000000,
100000000000000000000000200000000000000000000000,
100000000000000000000000200000200000200000000000,
100000000000000000000000200000000000000000000000,
100000000000000000000000100000100000100000000000,
100000000000100000000000200000000000200000000000,
500000000000000000000000800000000000000000000000,
600000000000000000000000800000000000000000000000,
#GOGOSTART
100000000000100000000000100000100000100000000000,
100000100000100000000000200000200000200000000000,
100000000000100000000000100000000000000000000000,
500000000000000000800000000000000000000000000000,
100000000000100000000000100000100000100000000000,
300000000000300000000000300000000000000000000000,
100000000000100000000000200000200000200000000000,
400000000000400000000000400000000000000000000000,
100000100000100000000000100000100000100000000000,
500000000000000000000000000000000000000000000008,
#GOGOEND
#END
COURSE:Easy
LEVEL:2
SCOREINIT:1030
SCOREDIFF:700
#START
100000000000100000000000100000000000000000000000,
100000000000000000000000000000000000000000000000,
100000000000100000000000100000000000000000000000,
100000000000000000000000000000000000000000000000,
100000000000100000000000100000000000000000000000,
100000000000000000000000000000000000000000000000,
100000000000000000000000200000000000000000000000,
500000000000000000800000000000000000000000000000,
100000000000000000000000100000000000000000000000,
100000000000100000000000100000000000000000000000,
100000000000000000000000100000000000000000000000,
500000000000000000800000000000000000000000000000,
100000000000000000000000100000000000000000000000,
100000000000100000000000100000000000000000000000,
100000000000000000000000200000000000000000000000,
500000000000000000000000800000000000000000000000,
#GOGOSTART
100000000000100000000000100000000000000000000000,
100000100000100000000000100000000000000000000000,
100000000000100000000000100000000000000000000000,
500000000000000000800000000000000000000000000000,
100000000000100000000000100000000000000000000000,
100000100000100000000000100000000000000000000000,
100000000000100000000000100000000000000000000000,
500000000000000000000000800000000000000000000000,
#GOGOEND
100000000000000000000000000000000000000000000000,
100000000000000000000000100000000000100000000000,
100000000000000000000000000000000000000000000000,
100000000000000000000000100000000000100000000000,
100000000000000000000000000000000000000000000000,
100000000000000000000000100000000000100000000000,
100000000000000000000000200000000000000000000000,
500000000000000000000000800000000000000000000000,
600000000000000000000000800000000000000000000000,
#GOGOSTART
100000000000100000000000100000000000000000000000,
100000100000100000000000100000000000000000000000,
100000000000100000000000100000000000000000000000,
500000000000000000800000000000000000000000000000,
100000000000100000000000100000000000000000000000,
300000000000300000000000300000000000000000000000,
200000000000200000000000200000000000000000000000,
400000000000400000000000400000000000000000000000,
100000000000100000000000100000000000000000000000,
500000000000000000000000000000000000000000800000,
#GOGOEND
#END