Files
2023-01-17 00:45:18 -05:00

326 lines
11 KiB
Plaintext

//TJADB Project
TITLE:Onegai Muscle
TITLEJA:お願いマッスル
SUBTITLE:--Side Chest Karusuya & Six Pack Shinozaki/Dumbbell Nan Kilo Moteru?
SUBTITLEJA:「ダンベル何キロ持てる?」より
BPM:132
WAVE:Onegai Muscle.ogg
OFFSET:0.001
DEMOSTART:0.909
BGMOVIE:Onegai Muscle.mp4
COURSE:Oni
LEVEL:7
BALLOON:4,4,4,4,5,3
SCOREINIT:750
SCOREDIFF:213
#START
#BARLINEOFF
#MEASURE 2/4
#SCROLL 1.5
000000000000600080500080600080000000000000000000,
#GOGOSTART
#BARLINEON
#MEASURE 4/4
#SCROLL 1
100000000000100100200000300000400000000000100000,
000000200000100000200000500000000000000008000000,
100000000000100100200000300000400000000000100000,
000000200000100000200000100000000000200200200000,
100000000000100100200000300000400000000000100000,
000000200000100000200000100000000000200000200000,
300000100100100100100000400000200200200200200000,
300000000300000000300000400000400000400000000000,
300000100100000000000000400000200200000000000000,
100000100000100100200200100000100000200000000000,
300000100100100000000000400000200200200000000000,
100100000100100000200000100100100000200000000000,
300000100100000000000000400000200200000000000000,
100000100000100000200000100100000100200000000000,
100100100000200200200000100100100000200200200000,
100000100100100000100000400000600000000008000000,
#GOGOEND
100000100000100100100000200000200000200200200000,
100000100000100100100000700000000000800000000000,
100000100000100100100000200000200000200200200000,
100000100000100100100000700000000000800000000000,
100000100000100100100000200000200000200200200000,
100000100000100100100000700000000000800000000000,
100000100000200000200000100100100000200200200000,
300000300000300000000000700000000000800000000000,
100000100000100000100000200000100000200000100000,
100000000100000000100000200000000200000000200000,
100000100000100000100000200000100000200000100000,
200000000000200000000000200000000000200000000000,
100000100000100000100000200000100000200000100000,
100000000100000000100000200000000200000000200000,
#MEASURE 8/4
100000000000200000000000300000000000400000000000
#SCROLL 2
400000000000000000000000700000000000800000000000,
#GOGOSTART
#MEASURE 4/4
#SCROLL 1
100000000000100100200000300000400000000000100000,
000000200000100000200000500000000000000008000000,
100000000000100100200000300000400000000000100000,
000000200000100000200000100000000000200200200000,
100000000000100100200000300000400000000000100000,
000000200000100000200000100000000000200000200000,
300000100100100100100000400000200200200200200000,
300000000300000000300000400000400000400000000000,
300000100100000000000000400000200200000000000000,
100100100000100100200000100000100000200000000000,
300000100100000000000000400000200200000100100000,
100000100000100000200000100100000100200000000000,
300000100100000100000000400000200200200000000000,
100100100000100000200000100100000100200000000000,
100100100000200200200000100100100000200200200000,
100000100100100100100000700000000000800000000000,
#GOGOEND
#END
COURSE:Hard
LEVEL:6
BALLOON:2
SCOREINIT:760
SCOREDIFF:248
#START
#BARLINEOFF
#MEASURE 2/4
#SCROLL 1.5
000000000000600080500080600080000000000000000000,
#GOGOSTART
#BARLINEON
#MEASURE 4/4
#SCROLL 1
100000000000100100100000300000300000000000100000,
000000100000100000100000200000000000000000000000,
100000000000100100100000300000300000000000100000,
000000100000100000100000200000000000200000000000,
100000000000100100100000300000300000000000100000,
000000100000100000100000200000000000200000000000,
300000000000000000000000400000000000000000000000,
600000000000000000000000000000000080000000000000,
300000300000000000000000400000400000000000000000,
100000100000100100100000100000100000200000000000,
300000300000300000000000400000400000400000000000,
100100000100100000000000200000200000200000000000,
300000300000000000000000400000400000000000000000,
100000100000200000000000100100000100100000000000,
100100100000100000000000200200200000200000000000,
100000100100100000000000400000000000000000000000,
#GOGOEND
100000100000100000000000200000200000200000000000,
100000100000100100100000300000000000000000000000,
100000100000100000000000200000200000200000000000,
100000100000100100100000300000000000000000000000,
100000100000100000000000200000200000200000000000,
100000100000100100100000300000000000000000000000,
100000100000100000000000200000200000200000000000,
300000300000300000000000400000000000000000000000,
100000100000100000100000200000000000100000000000,
100000000100000000000000200000000200000000000000,
100000100000100000100000200000000000100000000000,
200000000000200000000000200000000000200000000000,
100000100000100000100000200000000000100000000000,
100000000100000000000000200000000200000000000000,
#MEASURE 8/4
100000000000200000000000100000000000200000000000
#SCROLL 2
400000000000000000000000300000000000000000000000,
#GOGOSTART
#MEASURE 4/4
#SCROLL 1
100000000000100100100000300000300000000000100000,
000000100000100000100000200000000000000000000000,
100000000000100100100000300000300000000000100000,
000000100000100000100000200000000000200000000000,
100000000000100100100000300000300000000000100000,
000000100000100000100000200000000000200000000000,
300000000000000000000000400000000000000000000000,
600000000000000000000000000080000000000000000000,
300000300000000000000000400000400000000000000000,
100000100000100100100000100000100000200000000000,
300000300000000000000000400000400000000000000000,
100000100000200000000000100100000200200000000000,
300000300000000000000000400000400000400000000000,
100100100000200000000000100100000100100000000000,
100100100000100000000000200200200000200000000000,
100000100100100000100000700000000800000000000000,
#GOGOEND
#END
COURSE:Normal
LEVEL:5
BALLOON:2
SCOREINIT:770
SCOREDIFF:283
#START
#BARLINEOFF
#MEASURE 2/4
#SCROLL 1.5
000000000000600080500080600080000000000000000000,
#GOGOSTART
#BARLINEON
#MEASURE 4/4
#SCROLL 1
100000000000100000100000100000000000000000100000,
000000100000100000000000200000000000000000000000,
100000000000100000100000100000000000000000100000,
000000100000100000000000200000000000200000000000,
100000000000100000100000100000000000000000100000,
000000100000100000000000200000000000200000000000,
300000000000000000000000400000000000000000000000,
600000000000000000000000000000000080000000000000,
300000300000000000000000400000400000000000000000,
100000100000100000000000100000000000200000000000,
300000000000300000000000400000000000400000000000,
100000000000100000000000200000200000200000000000,
300000300000000000000000400000400000000000000000,
100000100000100000000000100000000000200000000000,
100000100000100000000000200000200000200000000000,
100000100000100000000000400000000000000000000000,
#GOGOEND
100000000000100000000000200000000000200000000000,
100000100000100000000000300000000000000000000000,
100000000000100000000000200000000000200000000000,
100000100000100000000000300000000000000000000000,
100000000000100000000000200000000000200000000000,
100000100000100000000000300000000000000000000000,
100000000000100000000000200000000000200000000000,
300000300000300000000000400000000000000000000000,
100000100000100000000000100000000000100000000000,
200000000000000000000000200000000000000000000000,
100000100000100000000000100000000000100000000000,
200000000000200000000000200000000000000000000000,
100000100000100000000000100000000000100000000000,
200000000000000000000000200000000000000000000000,
#MEASURE 8/4
100000000000200000000000100000000000200000000000
#SCROLL 2
400000000000000000000000300000000000000000000000,
#GOGOSTART
#MEASURE 4/4
#SCROLL 1
100000000000100000100000100000000000000000100000,
000000100000100000000000200000000000000000000000,
100000000000100000100000100000000000000000100000,
000000100000100000000000200000000000200000000000,
100000000000100000100000100000000000000000100000,
000000100000100000000000200000000000200000000000,
300000000000000000000000400000000000000000000000,
600000000000000000000000000080000000000000000000,
300000300000000000000000400000400000000000000000,
100000100000100000000000200000200000200000000000,
300000300000000000000000400000400000000000000000,
100000100000100000000000100000000000200000000000,
300000300000000000000000400000400000000000000000,
100000100000100000000000100000000000200000000000,
100000100000100000000000200000200000200000000000,
100000100000100000000000700000000800000000000000,
#GOGOEND
#END
COURSE:Easy
LEVEL:3
BALLOON:5,5
SCOREINIT:750
SCOREDIFF:413
#START
#BARLINEOFF
#MEASURE 2/4
#SCROLL 1.5
000000000000600080500080600080000000000000000000,
#GOGOSTART
#BARLINEON
#MEASURE 4/4
#SCROLL 1
100000000000100000000000100000000000000000000000,
000000000000100000000000200000000000000000000000,
100000000000100000000000100000000000000000000000,
000000000000100000000000200000000000000000000000,
100000000000100000000000100000000000000000000000,
000000000000100000000000200000000000000000000000,
300000000000000000000000400000000000000000000000,
600000000000000000000000000080000000000000000000,
300000000000000000000000400000000000000000000000,
100000000000100000000000100000000000000000000000,
300000000000000000000000400000000000000000000000,
100000000000100000000000200000000000000000000000,
300000000000000000000000400000000000000000000000,
100000000000100000000000100000000000000000000000,
100000000000100000000000100000000000100000000000,
700000000000000000000000000000800000000000000000,
#GOGOEND
100000000000000000000000100000000000000000000000,
100000000000100000000000300000000000000000000000,
100000000000000000000000200000000000000000000000,
100000000000100000000000300000000000000000000000,
100000000000000000000000100000000000000000000000,
100000000000100000000000300000000000000000000000,
100000000000000000000000200000000000000000000000,
300000000000300000000000300000000000000000000000,
100000000000000000000000100000000000000000000000,
200000000000000000000000000000000000000000000000,
100000000000000000000000100000000000000000000000,
200000000000200000000000200000000000000000000000,
100000000000000000000000100000000000000000000000,
200000000000000000000000000000000000000000000000,
#MEASURE 8/4
100000000000100000000000100000000000100000000000
#SCROLL 2
400000000000000000000000300000000000000000000000,
#GOGOSTART
#MEASURE 4/4
#SCROLL 1
100000000000100000000000100000000000000000000000,
000000000000100000000000200000000000000000000000,
100000000000100000000000100000000000000000000000,
000000000000100000000000200000000000000000000000,
100000000000100000000000100000000000000000000000,
000000000000100000000000200000000000000000000000,
300000000000000000000000400000000000000000000000,
600000000000000000000000000080000000000000000000,
300000000000000000000000400000000000000000000000,
100000000000100000000000100000000000000000000000,
300000000000000000000000400000000000000000000000,
100000000000100000000000200000000000000000000000,
300000000000000000000000400000000000000000000000,
100000000000100000000000100000000000000000000000,
100000000000100000000000100000000000100000000000,
700000000000000000000000000000800000000000000000,
#GOGOEND
#END