Files
2023-06-15 19:05:10 -05:00

291 lines
3.4 KiB
Plaintext

//TJADB Project
TITLE:PHOENIX
TITLEJA:PHOENIX
SUBTITLE:--BURNOUT SYNDROMES/Haikyuu‼ TO THE TOP
SUBTITLEJA:「ハイキュー!! TO THE TOP」より
BPM:137
WAVE:PHOENIX.ogg
OFFSET:-1.982
DEMOSTART:56.490
COURSE:Oni
LEVEL:8
BALLOON:12,3
SCOREINIT:660
SCOREDIFF:175
#START
#BARLINEOFF
#MEASURE 3/4
002020020020,
#MEASURE 4/4
#BARLINEON
1000002020020020,
10002222,
1020201100101017,
00081010,
20322032,
2000302020003022,
11111111,
100100100100101010102020000000000000000000000000,
#GOGOSTART
1012201212021020,
1012201222012011,
1012201212021010,
0030210211102110,
#GOGOEND
1000102012201020,
1000102012201020,
1002102012201020,
1002102010221220,
1022102010121020,
1022102011121020,
3001203022103000,
220000000000000000100000200200200200100200200200,
1012102021111020,
1012102012111020,
1012102011211020,
1010111210102210,
0010111120101040,
0010111110101030,
0010210120221221,
200200000200200000200200000200100000200010001000,
10200026,
0000000000000000000000000000000000000000080000000,
22400000,
#GOGOSTART
1021102112211020,
1021102112211020,
1021102112211011,
2011102022102110,
1012203022101022,
1012203022101022,
1220221012101110,
2011102020111111,
1010202120201210,
1010202120201210,
2011202120211210,
2011202012112112,
1021203011202011,
1021203011202011,
1021102212212210,
1021121022111111,
700000800000200000500008000000400000600000000008,
000222200300300300400000,
#GOGOEND
#END
COURSE:Hard
LEVEL:5
BALLOON:20,14,3,25,3,3,7
SCOREINIT:940
SCOREDIFF:275
#START
#BARLINEOFF
#MEASURE 3/4
,
#MEASURE 4/4
#BARLINEON
12,
12,
7,
0000000800000000,
0323,
2323,
9,
8,
#GOGOSTART
12021011,
1020002010011010,
12021011,
0070008011103000,
#GOGOEND
10101212,
10121020,
10101212,
10122010,
10101212,
10121220,
30230230,
2000000011101010,
10102112,
10112112,
10102112,
10102205,
00082206,
00084407,
0,
08,
10200024,
0,
11300000,
#GOGOSTART
1001101010022000,
1001101010022000,
1001101010022000,
1001101020101000,
30230110,
30230110,
10121020,
50000008,
1010200110102000,
1010200110102000,
1010200110102000,
1001101020101000,
30230110,
30230110,
1001101010022000,
1001101020101110,
70870870,
00833340,
,
,
#END
COURSE:1
LEVEL:4
BALLOON:15,9,7,18,2,2,4
#START
#BPMCHANGE 137
#BARLINEOFF
#MEASURE 3/4
0,
#MEASURE 4/4
#BARLINEON
12,
12,
7,
0000000800000000,
0303,
0303,
9,
8,
#GOGOSTART
11011000,
11022000,
11011011,
07000080,
#GOGOEND
10101100,
20220000,
10101101,
10022000,
10101100,
20220000,
30030030,
02,
10101011,
10111000,
10101011,
10102205,
00080006,
00084407,
0,
08,
20000004,
0,
11300000,
#GOGOSTART
10011020,
10011020,
10011020,
1222,
30030030,
30030030,
10011020,
5008,
1212,
10202220,
1212,
10201110,
30030030,
30030030,
10011020,
10101110,
70870870,
00833330,
,
,
#END
COURSE:0
LEVEL:3
BALLOON:12,7,4,13,14
#START
#BPMCHANGE 137
#BARLINEOFF
#MEASURE 3/4
0,
#MEASURE 4/4
#BARLINEON
1,
1,
7,
0000000800000000,
0303,
0303,
9,
8,
#GOGOSTART
11,
11,
11,
07000080,
#GOGOEND
11,
2,
11,
1,
11,
2,
30030030,
0011,
1011,
1011,
10002005,
00080006,
00080007,
0,
08,
2,
4,
0,
11100000,
#GOGOSTART
1011,
1011,
11,
12,
30030000,
30030000,
10010010,
5008,
1022,
2011,
1022,
21,
30030000,
30030000,
1012,
11,
7,
0000000000008000,
,
,
#END