forked from ESE/ESE
407 lines
17 KiB
Plaintext
407 lines
17 KiB
Plaintext
//TJADB Project
|
|
TITLE:Ψ Desu I LIKE YOU
|
|
TITLEJA:Ψです I LIKE YOU
|
|
SUBTITLE:--Dempagumi.inc/Saiki Kusou no Ψ-nan
|
|
SUBTITLEJA:「斉木楠雄のΨ難」より
|
|
BPM:220
|
|
WAVE:Psi Desu I LIKE YOU.ogg
|
|
OFFSET:-1.093
|
|
DEMOSTART:53.990
|
|
|
|
COURSE:Oni
|
|
LEVEL:9
|
|
BALLOON:5,25,15
|
|
SCOREINIT:630
|
|
SCOREDIFF:163
|
|
|
|
|
|
#START
|
|
|
|
|
|
100000001000200000000000100000001000200000000000,
|
|
100000001000200000001000000000001000200000002000,
|
|
100000001000200000000000100000001000200000000000,
|
|
100000001000200000001000000000001000200000002000,
|
|
100000001000200000000000100000001000200000000000,
|
|
100000001000200000001000000000001000200000002000,
|
|
100000001000200000002000100000001000200000002000,
|
|
500000000000000000000000000000000008000000000000,
|
|
300000000000300000000000300000002000200000001000,
|
|
200000002000100000002000100000001000200000000000,
|
|
300000000000300000000000300000002000200000001000,
|
|
200000002000100000002000100010001000200000000000,
|
|
300000000000300000000000400000002000200000001000,
|
|
200000002000100000002000100000001000200000000000,
|
|
100010002000100000000000200020001000200000002000,
|
|
100000002020200000001000200000002000100000000000,
|
|
300000000000300000000000300000002000200000001000,
|
|
200000002000100000002000100000001000200000000000,
|
|
300000000000300000000000300000002000200000001000,
|
|
200000002000100000002000100010001000200000000000,
|
|
300000000000300000000000400000002000200000001000,
|
|
200000002000100000002000100000001000200000000000,
|
|
100010002000100000001000200020001000200000002000,
|
|
100000000000000000000000300000000000000000000000,
|
|
100000000000200000002000100000001000100000000000,
|
|
100000000000200000002000100000001000200000000000,
|
|
100000000000200000002000100000001000100000000000,
|
|
100010001000200000002000100010001000200000000000,
|
|
100000000000200000002000100000001000100000000000,
|
|
100000000000200000002000100000001000200000000000,
|
|
100000000000200000002000100000001000100000000000,
|
|
700000000000000080000000400000000000000000000000,
|
|
100000000000200000002000100000001000100000000000,
|
|
100000000000200000002000100000001000200000000000,
|
|
100000000000200000002000100000001000100000000000,
|
|
100010001000200000002000100010001000200000000000,
|
|
100000000000100000002000100000000000100000000000,
|
|
100000002000100000002000100000000000100000000000,
|
|
100000001000200000002000100000001000200000000000,
|
|
300000000000000000000000400000000000000000000000,
|
|
100000001000100000002000100000001000200000002000,
|
|
100000001000200000002000100020002000100000002000,
|
|
100000001000100000002000100000001000200000002000,
|
|
200000001000200000001000200010001000200020002000,
|
|
100000001000100020002000100000001000200000002000,
|
|
100020002000100020001000100020002000100000000000,
|
|
300000000000000000000000300000000000000000000000,
|
|
300000000000400000000000100010001000200020002000,
|
|
100000001000100000000000400000000000000000000000,
|
|
|
|
#GOGOSTART
|
|
100000002000100000002000100000001000200000002000,
|
|
100000002000100000002000100000002000200000000000,
|
|
100000002000100000002000100000001000200000002000,
|
|
100000002000100000002000100020002000200000000000,
|
|
100000002000100000002000100000001000200000002000,
|
|
100000002000100000002000100000002000200000000000,
|
|
500000000000000000000000000000000008000000000000,
|
|
100000001000200000002000100000002000200010001000,
|
|
100000002000100000002000100000001000200000002000,
|
|
100000002000100000002000100000002000200000000000,
|
|
100000002000100000002000100000001000200000002000,
|
|
100000002000100000002000100020002000200000000000,
|
|
100000000000000000001000100000000000200000000000,
|
|
100000000000200000001000100000000000200000000000,
|
|
100000000000000000001000100000000000200000000000,
|
|
100000000000200000001000100000000000200000000000,
|
|
100000000000000000001000100000000000200000000000,
|
|
100000000000200000001000100010001000100010001000,
|
|
200000000000200000002000100000001000200000002000,
|
|
100010001000200020002000100010002000200010002000,
|
|
|
|
#GOGOEND
|
|
700000000000000000000000000000000000000000000000,
|
|
000000000000000000000000000000000000000800000000,
|
|
100000001000200000000000100000001000200000002000,
|
|
100020001000200000001000200020001000200000002000,
|
|
100000001000200000000000100000001000200000002000,
|
|
100000001000200000001000200020202000200000002000,
|
|
100000001000200000002000100010001000200000002000,
|
|
100000002020100000001000000000001000200000002000,
|
|
100020001000200000002000100010001000200000002000,
|
|
100000001010200000002000100010001000200000000000,
|
|
700000000000000000000000000000000000000000000000,
|
|
000008000000000000000000000000000000000000000000,
|
|
|
|
|
|
#END
|
|
|
|
|
|
COURSE:Hard
|
|
LEVEL:7
|
|
BALLOON:4,11,21,13
|
|
SCOREINIT:680
|
|
SCOREDIFF:183
|
|
|
|
|
|
#START
|
|
|
|
|
|
100000001000100000000000100000001000100000000000,
|
|
100000001000100000001000000000002000200000000000,
|
|
100000001000100000000000100000001000100000000000,
|
|
100000001000100000001000000000002000200000000000,
|
|
100000001000100000000000100000001000100000000000,
|
|
100000001000100000001000000000002000200000000000,
|
|
100000001000100000000000200000002000200000000000,
|
|
500000000000000000000000000000008000000000000000,
|
|
300000000000300000000000300000000000000000000000,
|
|
100000000000200000000000100000001000100000000000,
|
|
400000000000400000000000400000000000000000000000,
|
|
100000000000200000000000100000002000200000000000,
|
|
300000000000300000000000300000000000000000000000,
|
|
100000000000200000000000100000001000100000000000,
|
|
100000001000100000000000100000001000100000000000,
|
|
500000000000000000008000000000000000000000000000,
|
|
300000000000300000000000300000000000000000000000,
|
|
100000000000200000000000100000001000100000000000,
|
|
400000000000400000000000400000000000000000000000,
|
|
100000000000200000000000100000002000200000000000,
|
|
300000000000300000000000300000000000000000000000,
|
|
100000000000200000000000100000001000100000000000,
|
|
100000001000100000000000100000001000100000000000,
|
|
100000000000000000000000300000000000000000000000,
|
|
100000000000000000001000100000001000100000000000,
|
|
100000001000100000001000100000000000000000000000,
|
|
100000000000000000001000100000001000100000000000,
|
|
200000002000200000002000200000000000000000000000,
|
|
100000000000000000001000100000001000100000000000,
|
|
100000001000100000001000100000000000000000000000,
|
|
100000000000100000000000100000001000100000000000,
|
|
700000000000000800000000400000000000000000000000,
|
|
100000000000000000001000100000001000100000000000,
|
|
100000001000100000001000100000000000000000000000,
|
|
100000000000000000001000100000001000100000000000,
|
|
200000002000200000002000200000000000000000000000,
|
|
100000000000100000002000100000000000100000000000,
|
|
100000000000100000002000100000000000100000000000,
|
|
100000000000100000002000100000000000100000000000,
|
|
300000000000000000000000400000000000000000000000,
|
|
100000001000100000001000100000001000100000001000,
|
|
100000001000100000001000100000001000100000000000,
|
|
200000002000200000002000200000002000200000002000,
|
|
200000002000200000002000200000002000200000000000,
|
|
100000001000100000001000100000001000100000000000,
|
|
200000002000200000002000200000002000200000000000,
|
|
300000000000000000000000300000000000000000000000,
|
|
300000000000300000000000600000000000000000000000,
|
|
000000008000000000000000400000000000000000000000,
|
|
#GOGOSTART
|
|
100000001000100000000000100000001000100000000000,
|
|
300000000000400000000000300000000000000000000000,
|
|
100000001000100000000000100000001000100000000000,
|
|
400000000000300000000000400000000000000000000000,
|
|
100000001000100000000000200000002000200000000000,
|
|
100000001000100000000000200000002000200000000000,
|
|
900000000000000000000000000000000000000000000000,
|
|
800000000000000000000000000000000000000000000000,
|
|
100000001000100000000000100000001000100000000000,
|
|
300000000000400000000000300000000000000000000000,
|
|
100000001000100000000000100000001000100000000000,
|
|
400000000000300000000000400000000000000000000000,
|
|
100000000000000000001000100000000000200000000000,
|
|
100000001000100000001000100000000000000000000000,
|
|
100000000000000000001000100000000000200000000000,
|
|
100000001000100000002000200000000000000000000000,
|
|
100000000000000000001000100000000000200000000000,
|
|
100000001000100000001000100000000000200000000000,
|
|
100000000000200000001000100000000000200000000000,
|
|
100000000000200000001000100000000000200000000000,
|
|
#GOGOEND
|
|
700000000000000000000000000000000000000000000000,
|
|
000000000000000000000000000000000000800000000000,
|
|
100000001000100000000000100000001000100000000000,
|
|
100000001000100000001000000000002000200000000000,
|
|
100000001000100000000000100000001000100000000000,
|
|
100000001000100000001000000000002000200000000000,
|
|
100000001000100000000000200000002000200000000000,
|
|
100000001000100000001000000000002000200000000000,
|
|
100000001000100000000000200000002000200000000000,
|
|
100000001000100000001000000000002000200000000000,
|
|
700000000000000000000000000000000000000000000000,
|
|
000080000000000000000000000000000000000000000000,
|
|
|
|
|
|
#END
|
|
|
|
|
|
COURSE:Normal
|
|
LEVEL:7
|
|
BALLOON:7,6,13,9
|
|
SCOREINIT:760
|
|
SCOREDIFF:223
|
|
|
|
|
|
#START
|
|
|
|
|
|
100000000000200000000000100000000000200000000000,
|
|
100000000000100000001000000000000000000000000000,
|
|
100000000000200000000000100000000000200000000000,
|
|
100000000000100000001000000000000000000000000000,
|
|
100000000000200000000000100000000000200000000000,
|
|
100000000000100000001000000000000000000000000000,
|
|
100000000000100000000000200000000000200000000000,
|
|
500000000000000000000000000000000008000000000000,
|
|
300000000000300000000000300000000000000000000000,
|
|
100000000000200000000000100000000000100000000000,
|
|
400000000000400000000000400000000000000000000000,
|
|
100000000000200000000000100000000000100000000000,
|
|
300000000000300000000000300000000000000000000000,
|
|
100000000000200000000000100000000000100000000000,
|
|
500000000000000000000000000000000000000000000000,
|
|
000000000000000008000000000000000000000000000000,
|
|
300000000000300000000000300000000000000000000000,
|
|
100000000000200000000000100000000000100000000000,
|
|
400000000000400000000000400000000000000000000000,
|
|
100000000000200000000000100000000000200000000000,
|
|
300000000000300000000000300000000000000000000000,
|
|
100000000000200000000000100000000000100000000000,
|
|
700000000000000000000000000000000000000000000000,
|
|
800000000000000000000000300000000000000000000000,
|
|
100000000000000000000000100000001000100000000000,
|
|
100000000000000000000000100000001000100000000000,
|
|
100000000000000000000000100000001000100000000000,
|
|
100000000000000000000000000000000000000000000000,
|
|
100000000000000000000000100000001000100000000000,
|
|
100000000000000000000000100000001000100000000000,
|
|
100000000000000000000000200000000000000000000000,
|
|
100000000000000000000000400000000000000000000000,
|
|
100000000000000000000000100000001000100000000000,
|
|
100000000000000000000000100000001000100000000000,
|
|
100000000000000000000000100000001000100000000000,
|
|
100000000000000000000000200000000000000000000000,
|
|
100000000000100000000000200000000000100000000000,
|
|
100000000000100000000000200000000000100000000000,
|
|
100000000000100000000000200000000000100000000000,
|
|
300000000000000000000000400000000000000000000000,
|
|
100000000000100000000000100000000000200000000000,
|
|
100000000000200000000000100000000000200000000000,
|
|
100000000000100000000000100000000000200000000000,
|
|
100000000000200000000000100000000000200000000000,
|
|
100000000000100000000000100000000000200000000000,
|
|
100000000000100000000000200000000000200000000000,
|
|
300000000000000000000000300000000000000000000000,
|
|
300000000000300000000000600000000000000000000000,
|
|
000000000008000000000000400000000000000000000000,
|
|
|
|
#GOGOSTART
|
|
100000000000100000000000200000000000200000000000,
|
|
300000000000300000000000300000000000000000000000,
|
|
100000000000200000000000100000000000200000000000,
|
|
300000000000300000000000300000000000000000000000,
|
|
100000000000100000000000200000000000200000000000,
|
|
300000000000300000000000300000000000000000000000,
|
|
900000000000000000000000000000000000000000000000,
|
|
800000000000000000000000000000000000000000000000,
|
|
100000000000100000000000200000000000200000000000,
|
|
300000000000300000000000300000000000200000000000,
|
|
100000000000200000000000100000000000200000000000,
|
|
300000000000300000000000300000000000200000000000,
|
|
100000000000000000001000100000000000000000000000,
|
|
300000000000300000000000300000000000000000000000,
|
|
100000000000000000001000100000000000000000000000,
|
|
400000000000400000000000400000000000000000000000,
|
|
100000000000000000001000100000000000000000000000,
|
|
300000000000300000000000300000000000200000000000,
|
|
100000000000200000000000100000000000200000000000,
|
|
100000000000200000000000100000000000200000000000,
|
|
#GOGOEND
|
|
700000000000000000000000000000000000000000000000,
|
|
000000000000000000000000000000000000000008000000,
|
|
100000000000200000000000100000000000200000000000,
|
|
100000000000100000001000000000000000000000000000,
|
|
100000000000200000000000100000000000200000000000,
|
|
100000000000100000001000000000000000000000000000,
|
|
100000000000100000000000200000000000200000000000,
|
|
100000000000200000002000000000000000000000000000,
|
|
100000000000100000000000200000000000200000000000,
|
|
100000000000200000002000000000000000000000000000,
|
|
700000000000000000000000000000000000000000000000,
|
|
000000800000000000000000000000000000000000000000,
|
|
|
|
|
|
#END
|
|
|
|
|
|
COURSE:Easy
|
|
LEVEL:5
|
|
BALLOON:6,6,4,4,4,10,7
|
|
SCOREINIT:520
|
|
SCOREDIFF:148
|
|
|
|
|
|
#START
|
|
|
|
|
|
100000000000200000000000100000000000000000000000,
|
|
100000000000100000000000000000000000000000000000,
|
|
100000000000200000000000100000000000000000000000,
|
|
100000000000100000000000000000000000000000000000,
|
|
100000000000200000000000100000000000000000000000,
|
|
100000000000100000000000000000000000000000000000,
|
|
100000000000000000000000200000000000000000000000,
|
|
500000000000000000000000800000000000000000000000,
|
|
300000000000300000000000300000000000000000000000,
|
|
100000000000000000000000200000000000000000000000,
|
|
400000000000400000000000400000000000000000000000,
|
|
100000000000000000000000200000000000000000000000,
|
|
300000000000300000000000300000000000000000000000,
|
|
100000000000000000000000200000000000000000000000,
|
|
500000000000000000000000000000000000000000000000,
|
|
000000000000800000000000000000000000000000000000,
|
|
300000000000300000000000300000000000000000000000,
|
|
100000000000000000000000200000000000000000000000,
|
|
400000000000400000000000400000000000000000000000,
|
|
100000000000000000000000200000000000000000000000,
|
|
300000000000300000000000300000000000000000000000,
|
|
100000000000000000000000200000000000000000000000,
|
|
700000000000000000000000000000000000000000800000,
|
|
000000000000000000000000300000000000000000000000,
|
|
100000000000000000000000100000000000000000000000,
|
|
100000000000100000000000100000000000000000000000,
|
|
100000000000000000000000100000000000000000000000,
|
|
200000000000200000000000200000000000000000000000,
|
|
100000000000000000000000100000000000000000000000,
|
|
100000000000100000000000100000000000000000000000,
|
|
100000000000000000000000200000000000000000000000,
|
|
100000000000000000000000400000000000000000000000,
|
|
100000000000000000000000100000000000000000000000,
|
|
100000000000100000000000100000000000000000000000,
|
|
100000000000000000000000100000000000000000000000,
|
|
100000000000000000000000200000000000000000000000,
|
|
100000000000100000000000100000000000000000000000,
|
|
100000000000100000000000100000000000000000000000,
|
|
100000000000100000000000100000000000100000000000,
|
|
300000000000000000000000400000000000000000000000,
|
|
100000000000000000000000100000000000000000000000,
|
|
100000000000200000000000100000000000200000000000,
|
|
100000000000000000000000100000000000000000000000,
|
|
100000000000100000000000200000000000200000000000,
|
|
100000000000000000000000100000000000000000000000,
|
|
100000000000200000000000100000000000200000000000,
|
|
300000000000000000000000300000000000000000000000,
|
|
300000000000300000000000600000000000000000000000,
|
|
800000000000000000000000400000000000000000000000,
|
|
|
|
#GOGOSTART
|
|
100000000000100000000000200000000000000000000000,
|
|
300000000000300000000000300000000000000000000000,
|
|
100000000000200000000000100000000000000000000000,
|
|
300000000000300000000000300000000000000000000000,
|
|
100000000000100000000000200000000000000000000000,
|
|
300000000000300000000000300000000000000000000000,
|
|
900000000000000000000000000000000000000000000000,
|
|
800000000000000000000000000000000000000000000000,
|
|
100000000000100000000000200000000000000000000000,
|
|
300000000000300000000000300000000000000000000000,
|
|
100000000000200000000000100000000000000000000000,
|
|
300000000000300000000000300000000000000000000000,
|
|
700000000000000000000000000000000000800000000000,
|
|
300000000000400000000000300000000000000000000000,
|
|
700000000000000000000000000000000000800000000000,
|
|
300000000000300000000000400000000000000000000000,
|
|
700000000000000000000000000000000000800000000000,
|
|
400000000000300000000000300000000000000000000000,
|
|
100000000000200000000000100000000000000000000000,
|
|
100000000000200000000000100000000000200000000000,
|
|
|
|
#GOGOEND
|
|
700000000000000000000000000000000000000000000000,
|
|
000000000000000000000000000000000000800000000000,
|
|
100000000000200000000000100000000000000000000000,
|
|
100000000000100000000000000000000000000000000000,
|
|
100000000000200000000000100000000000000000000000,
|
|
100000000000100000000000000000000000000000000000,
|
|
100000000000100000000000200000000000200000000000,
|
|
100000000000100000000000000000000000000000000000,
|
|
100000000000100000000000200000000000200000000000,
|
|
100000000000100000000000000000000000000000000000,
|
|
700000000000000000000000000000000000000000000000,
|
|
000000800000000000000000000000000000000000000000,
|
|
|
|
|
|
#END
|
|
|