Files
2023-06-15 19:15:39 -05:00

280 lines
10 KiB
Plaintext

//TJADB Project
TITLE:Purigorota March
TITLEJA:プリごろ太マーチ
SUBTITLE:--Haruka Kudo/Nodame Cantabile
BPM:125
WAVE:Purigorota March.ogg
OFFSET:-2.109
DEMOSTART:32.829
COURSE:Oni
LEVEL:8
SCOREINIT:720
SCOREDIFF:160
#START
100000000000000000100100200000000000000000200200,
100010001000100000000000200000000000000000000000,
100000000000000000100100100000000000000000200200,
100010001000500000000008000000500000000008000000,
000000000000100000000000200000200000200000200000,
200000100000100000000000200000200000200000000000,
100000200000200000500000000000000008000000000000,
100000200200200000500000000000000008000000200000,
300000000000000000000000200000200000000000000000,
100000200200100200000200100000200000200000200200,
100000200000000000000000200000200000000000000000,
100000200200100200000200100000200000200000200200,
100000200000000000000000200000200000000000000000,
100000200200100200000200100000200000200000200000,
100000200000200200000200100200200200200000000000,
100000200200100200000200100000200000400000000000,
#GOGOSTART
300000000200200000100000100000200200200000100000,
300000000200100000100000100000200000200200200000,
300000000200200000100000100000200200200000200000,
300000000200100000100000100000200000200000200000,
300000000100100000200000100000100100100000200000,
300000000200100000100000100000200000200000200000,
300000100100100000100000100000200200200000100100,
100000100000100000100000100000200200100000000000,
#GOGOEND
100000100100100000100000200000200200200000200000,
100000200000100000100000100000200000200200200200,
100000100100100000200000100000100100100000200000,
100000100100200000100000200000100000200200200200,
100000100100200000200000100000100100200000200200,
100000100000100000100000100000000000200000100100,
100000100100200000200000200000000000200000100100,
100000200000200000200000200000200200100000000000,
100000200200200000100000100000200200200000100000,
100000200200100000200000100200200200200000200000,
100000200200200000100000100000200200200000100000,
100000200200100000200000100000200200200000100000,
100000100100200000100000100000200200200000100000,
100000200000100000200000100000200200200000100000,
100000100100100000100000200000200200200000200000,
100000000000100010001000200000200000200000200000,
#GOGOSTART
300000000200200000100000100000200200200000100000,
300000000200100000100000100000200000200200200000,
300000000200200000100000100000200200200000200000,
100000000200100000200000100000200000200000100000,
300000000100100000200000100000200200200000100000,
300000000200100000100000100000200000200000100100,
100000100100100000200000100000200200200000100100,
100000100000100000100000100000400000300000000000,
#GOGOEND
#END
COURSE:Hard
LEVEL:5
BALLOON:20
SCOREINIT:750
SCOREDIFF:190
#START
100000000000000000000000100000000000000000000000,
100010001000100000000000000000000000000000000000,
100000000000000000000000100000000000000000000000,
100010001000900000000000000000000000000000000000,
000000000000000000000000000000000000000000000000,
800000000000000000000000000000000000000000000000,
100000200000200000500000000000000800000000000000,
100000200000200000500000000000000800000000200000,
300000000000000000000000200000200000000000000000,
200000200200200200000200200000200000200000000000,
300000000000000000000000200000200000000000000000,
200000200200200200000200200000200000200000000000,
300000000000000000000000200000200000000000000000,
200000200200200200000200200000200000200000000000,
300000000000000000000000200200200200200000000000,
100000000000100000000000100000000000400000000000,
#GOGOSTART
300000000100100000100000100000100000200000000000,
300000000100100000100000200000000000000000000000,
300000000100100000200000100000100000200000000000,
300000000100100000100000200000000000000000000000,
300000000100100000200000100000100000200000000000,
300000000100100000100000200000000000000000200000,
100000100000100000000000200000000000000000100100,
100000100000100000100000100000200000300000000000,
#GOGOEND
100000000000100000000000100000100000100000000000,
100000000000100000100000200000000000000000200000,
100000000000100000000000100000100000100000000000,
100000000000200000200000200000000000000000200000,
100000100000100000000000100000100000100000200200,
200000200000200000200000200000000000000000100000,
100000000000100000000000200000000000200000200200,
200000200000200000200000200000000000300000000000,
100000200200200000100000100000200200200000100000,
100000200000200000000000100000200000200000000000,
100000200200200000100000100000200200200000100000,
100000200000200000000000100000200000200000000000,
100000100100100000000000200000200200200000200000,
100000100100100000000000200000200200200000200000,
100000100100100000100000200000200200200000200000,
500000000000000000000000000000000800000000000000,
#GOGOSTART
300000000100100000200000100000100000200000000000,
300000000100100000100000200000200000200000000000,
300000000100100000200000100000200000100000100100,
100000100000100000100000100000200000200000000000,
300000000100100000200000100000100000200000000000,
300000000100100000100000200000200000200000200200,
200000000000100000000000100000000000000000100100,
100000100000100000100000200000000000300000000000,
#GOGOEND
#END
COURSE:Normal
LEVEL:4
BALLOON:16
SCOREINIT:1080
SCOREDIFF:330
#START
000000000000000000000000000000000000000000000000,
000000000000000000000000000000000000000000000000,
100000000000000000000000100000000000000000000000,
100000000000900000000000000000000000000000000000,
000000000000000000000000000000000000000000000000,
800000000000000000000000000000000000000000000000,
100000100000100000500000000000800000000000000000,
100000100000100000500000000000800000000000000000,
300000000000000000000000000000000000000000000000,
100000100000000000000000500000000000000000800000,
000000000000000000000000000000000000000000000000,
100000100000100000000000000000000000000000000000,
300000000000000000000000000000000000000000000000,
100000000000100000000000000000000000500000000000,
000000800000000000000000000000000000000000000000,
100000000000100000000000100000000000200000000000,
#GOGOSTART
300000000000000000000000100000100000100000000000,
100000000100100000000000100000000000000000000000,
300000000000000000000000100000100000100000000000,
100000000100100000000000200000000000000000000000,
300000000000000000000000100000100000100000000000,
100000000100100000000000100000000000000000000000,
100000100000100000000000200000000000000000000000,
100000000000100000000000000000000000300000000000,
#GOGOEND
100000000000000000000000100000100000100000000000,
100000000000100000000000100000000000000000000000,
100000000000000000000000100000100000100000000000,
100000000000200000000000200000000000000000000000,
100000100000100000000000100000100000100000000000,
100000100000100000000000100000000000000000000000,
100000000000000000000000200000000000000000000000,
200000200000200000000000200000000000300000000000,
100000000000000000000000100000000000100000100000,
100000000000000000000000100000000000000000000000,
200000000000000000000000200000000000200000200000,
200000000000000000000000200000000000000000000000,
100000100000100000000000100000000000000000000000,
100000100000100000000000100000000000000000000000,
100000000000100000000000200000000000200000000000,
500000000000000000000000000000800000000000000000,
#GOGOSTART
300000000000000000000000100000100000100000000000,
100000000100100000000000100000000000000000000000,
300000000000000000000000100000100000100000000000,
100000000000200000000000200000000000000000000000,
300000000000000000000000100000100000100000000000,
100000000100100000000000100000000000000000000000,
100000100000100000000000200000000000000000000000,
300000000000300000000000300000000000300000000000,
#GOGOEND
#END
COURSE:Easy
LEVEL:3
BALLOON:10
SCOREINIT:860
SCOREDIFF:360
#START
000000000000000000000000000000000000000000000000,
000000000000000000000000000000000000000000000000,
100000000000000000000000100000000000000000000000,
100000000000900000000000000000000000000000000000,
000000000000000000000000000000000000000000000000,
800000000000000000000000000000000000000000000000,
100000000000000000000000100000000000000000000000,
100000000000100000000000100000000000000000000000,
300000000000000000000000000000000000000000000000,
100000000000000000000000500000000000000000800000,
000000000000000000000000000000000000000000000000,
100000000000000000000000000000000000000000000000,
300000000000000000000000000000000000000000000000,
100000000000000000000000000000000000500000000000,
000000800000000000000000000000000000000000000000,
100000000000100000000000100000000000000000000000,
#GOGOSTART
300000000000000000000000300000000000000000000000,
100000000000100000000000100000000000000000000000,
300000000000000000000000300000000000000000000000,
100000000000100000000000100000000000000000000000,
300000000000000000000000300000000000000000000000,
100000000000100000000000100000000000000000000000,
100000000000000000000000200000000000000000000000,
300000000000000000000000000000000000300000000000,
#GOGOEND
100000000000000000000000100000100000100000000000,
100000000000000000000000100000000000000000000000,
100000000000000000000000100000100000100000000000,
100000000000000000000000200000000000000000000000,
100000000000100000000000100000000000000000000000,
100000000000100000000000100000000000000000000000,
100000000000000000000000200000000000000000000000,
200000000000000000000000000000000000300000000000,
100000000000000000000000100000000000100000000000,
100000000000000000000000100000000000000000000000,
200000000000000000000000200000000000200000000000,
200000000000000000000000200000000000000000000000,
100000100000100000000000100000000000000000000000,
100000100000100000000000100000000000000000000000,
100000000000100000000000200000000000200000000000,
500000000000000000000000000000800000000000000000,
#GOGOSTART
300000000000000000000000300000000000000000000000,
100000000000100000000000100000000000000000000000,
300000000000000000000000300000000000000000000000,
200000000000200000000000200000000000000000000000,
300000000000000000000000300000000000000000000000,
100000000000100000000000100000000000000000000000,
100000000000000000000000200000000000000000000000,
300000000000000000000000000000000000300000000000,
#GOGOEND
#END