forked from ESE/ESE
379 lines
13 KiB
Plaintext
379 lines
13 KiB
Plaintext
//TJADB Project
|
|
TITLE:Pururun! Shizuku-chan
|
|
TITLEJA:ぷるるんっ!しずくちゃん
|
|
SUBTITLE:--Sister MAYO feat. D.D.S./Pururun! Shizuku-chan
|
|
BPM:158
|
|
WAVE:Pururun! Shizuku-chan.ogg
|
|
OFFSET:-1.733
|
|
DEMOSTART:66.986
|
|
|
|
COURSE:Oni
|
|
LEVEL:4
|
|
SCOREINIT:740
|
|
SCOREDIFF:190
|
|
|
|
|
|
#START
|
|
|
|
|
|
100000000000100000000000100000000000100000000000,
|
|
100000000000100000000000100000000000000000000000,
|
|
#MEASURE 5/4
|
|
#BPMCHANGE 74
|
|
#SCROLL 2.13
|
|
100000100100
|
|
#BPMCHANGE 73.58
|
|
#SCROLL 2.14
|
|
100000100100
|
|
#BPMCHANGE 60.44
|
|
#SCROLL 2.61
|
|
100000100100
|
|
#BPMCHANGE 64.13
|
|
#SCROLL 2.46
|
|
500000000000000008000000,
|
|
#MEASURE 4/4
|
|
#BPMCHANGE 158
|
|
#SCROLL 1
|
|
100100100000100000000000100000000000000000000000,
|
|
100100100000100000000000100000000000000000000000,
|
|
100100100000100000000000100000000000000000000000,
|
|
100100100000100000000000100000000000000000000000,
|
|
100100100000100000000000100100100000100000000000,
|
|
100100100100100000000000000000000000000000000000,
|
|
|
|
#GOGOSTART
|
|
100000000000200200200000100000000000200200200000,
|
|
300000000000300000000000300000000000000000000000,
|
|
100000200000100000200000100000200000100000200000,
|
|
000000000000200000000000200000000000000000000000,
|
|
100000000000200200200000100000000000200200200000,
|
|
300000000000300000000000300000000000000000000000,
|
|
100000200000100000200000100000200000100000200000,
|
|
100000000000200000000000200000000000000000000000,
|
|
100000000000100000100100100000000000100000100100,
|
|
100000000000000000100000000000200000200000000000,
|
|
100100100000100000100000100100100000100000100000,
|
|
300000000000300000000000200200200200200000000000,
|
|
500000000000000000000000000000000000000000000008,
|
|
000000000000000000000000000000000000000000000000,
|
|
100100100000100000000000100100100000100000000000,
|
|
100100100000300000300000000000000000000000000000,
|
|
|
|
#GOGOEND
|
|
100000100000200000200000100000100000200000000000,
|
|
100000100000200000200000200000000000200000000000,
|
|
100000100000200000200000100000100000200000000000,
|
|
100100100000000000000000000000000000000000000000,
|
|
100000100000200000200000100000100000200000000000,
|
|
100000100000200000200000200000000000200000000000,
|
|
100000100000200000200000100000100000200000000000,
|
|
100000000000000000000000000000000000000000000000,
|
|
100000000000200000100000100000000000200000000000,
|
|
100000000000200000100000000000200200200000000000,
|
|
100000000000100000000000100000000000100000000000,
|
|
000000200000000000200000000000200000000000000000,
|
|
100100100000100000000000200000200000200000000000,
|
|
100100100000100000000000200000200000200000000000,
|
|
500000000000000000000000000000000000000000000008,
|
|
000000000000000000000000000000000000000000000000,
|
|
|
|
#GOGOSTART
|
|
100000000000200200200000100000000000200200200000,
|
|
300000000000300000000000300000000000000000000000,
|
|
100000200000100000200000100000200000100000200000,
|
|
000000000000200000000000200000000000000000000000,
|
|
100000000000200200200000100000000000200200200000,
|
|
300000000000300000000000300000000000000000000000,
|
|
100000200000100000200000100000200000100000200000,
|
|
100000000000200000000000200000000000000000000000,
|
|
100000000000100100100000100000000000100100100000,
|
|
100000000000000000100000000000200200200000000000,
|
|
100100100000100000100000100100100000100000100000,
|
|
300000000000300000000000200200200200200000000000,
|
|
500000000000000000000000000000000000000000000008,
|
|
000000000000000000000000000000000000000000000000,
|
|
100100100000100000100000100100100000100000100000,
|
|
100100100000300000300000000000000000000000000000,
|
|
|
|
#GOGOEND
|
|
|
|
|
|
#END
|
|
|
|
|
|
COURSE:Hard
|
|
LEVEL:2
|
|
BALLOON:15
|
|
SCOREINIT:810
|
|
SCOREDIFF:230
|
|
|
|
|
|
#START
|
|
|
|
|
|
100000000000100000000000100000000000100000000000,
|
|
100000000000100000000000100000000000000000000000,
|
|
#MEASURE 5/4
|
|
#BPMCHANGE 74
|
|
#SCROLL 2.13
|
|
700000000000
|
|
#BPMCHANGE 73.58
|
|
#SCROLL 2.14
|
|
000000000000
|
|
#BPMCHANGE 60.44
|
|
#SCROLL 2.61
|
|
000000000000
|
|
#BPMCHANGE 64.13
|
|
#SCROLL 2.46
|
|
000000000000800000000000,
|
|
#MEASURE 4/4
|
|
#BPMCHANGE 158
|
|
#SCROLL 1
|
|
100000000000100000000000100000000000000000000000,
|
|
100000000000100000100000100000000000000000000000,
|
|
100000000000100000000000100000000000000000000000,
|
|
100000000000100000100000100000000000000000000000,
|
|
100000000000100000000000100000000000100000000000,
|
|
100000100000100000000000000000000000000000000000,
|
|
#GOGOSTART
|
|
100000000000200000000000100000000000200000000000,
|
|
300000000000300000000000300000000000000000000000,
|
|
100000200000100000000000100000200000100000200000,
|
|
000000000000200000000000200000000000000000000000,
|
|
100000000000200000000000100000000000200000000000,
|
|
300000000000300000000000300000000000000000000000,
|
|
100000200000100000000000100000200000100000200000,
|
|
100000000000200000000000200000000000000000000000,
|
|
100000000000100000000000100000000000100000000000,
|
|
100000000000000000100000000000000000000000000000,
|
|
100000100000100000000000100000100000100000000000,
|
|
300000000000000000000000200000000000200000000000,
|
|
500000000000000000000000000000000000000000800000,
|
|
000000000000000000000000000000000000000000000000,
|
|
100000000000100000000000100000100000100000000000,
|
|
300000000000300000300000000000000000000000000000,
|
|
#GOGOEND
|
|
100000000000100000100000100000000000000000000000,
|
|
100000000000100000100000100000000000000000000000,
|
|
100000000000100000100000100000000000000000000000,
|
|
100000000000100000000000000000000000000000000000,
|
|
100000000000200000200000200000000000000000000000,
|
|
100000000000200000200000200000000000000000000000,
|
|
100000000000200000200000200000000000000000000000,
|
|
200000000000000000000000000000000000000000000000,
|
|
100000000000000000200000200000000000000000000000,
|
|
100000000000000000200000200000000000000000000000,
|
|
100000000000200000000000200000000000200000000000,
|
|
000000000000000000000000000000000000000000000000,
|
|
100000100000100000000000000000000000200000000000,
|
|
100000100000100000000000000000000000200000000000,
|
|
500000000000000000000000000000000000000000800000,
|
|
000000000000000000000000000000000000000000000000,
|
|
#GOGOSTART
|
|
100000000000200000000000100000000000200000000000,
|
|
300000000000300000000000300000000000000000000000,
|
|
100000200000100000000000100000200000100000200000,
|
|
000000000000200000000000200000000000000000000000,
|
|
100000000000200000000000100000000000200000000000,
|
|
300000000000300000000000300000000000000000000000,
|
|
100000200000100000000000100000200000100000200000,
|
|
100000000000200000000000200000000000000000000000,
|
|
100000000000100000000000100000000000100000000000,
|
|
100000000000000000100000000000000000000000000000,
|
|
100000100000100000000000100000100000100000000000,
|
|
300000000000000000000000200000000000200000000000,
|
|
500000000000000000000000000000000000000000800000,
|
|
000000000000000000000000000000000000000000000000,
|
|
100000100000100000000000100000100000100000000000,
|
|
300000000000300000300000000000000000000000000000,
|
|
|
|
#GOGOEND
|
|
|
|
|
|
#END
|
|
|
|
|
|
COURSE:Normal
|
|
LEVEL:2
|
|
BALLOON:12
|
|
SCOREINIT:1130
|
|
SCOREDIFF:470
|
|
|
|
|
|
#START
|
|
|
|
|
|
100000000000000000000000100000000000000000000000,
|
|
100000000000000000000000100000000000000000000000,
|
|
#MEASURE 5/4
|
|
#BPMCHANGE 74
|
|
#SCROLL 2.13
|
|
900000000000
|
|
#BPMCHANGE 73.58
|
|
#SCROLL 2.14
|
|
000000000000
|
|
#BPMCHANGE 60.44
|
|
#SCROLL 2.61
|
|
000000000000
|
|
#BPMCHANGE 64.13
|
|
#SCROLL 2.46
|
|
000000000000800000000000,
|
|
#MEASURE 4/4
|
|
#BPMCHANGE 158
|
|
#SCROLL 1
|
|
000000000000000000000000000000000000000000000000,
|
|
100000000000000000000000000000000000000000000000,
|
|
100000000000000000000000000000000000000000000000,
|
|
100000000000000000000000000000000000000000000000,
|
|
100000000000000000000000100000000000000000000000,
|
|
300000000000000000000000000000000000000000000000,
|
|
#GOGOSTART
|
|
100000000000000000000000100000000000000000000000,
|
|
300000000000300000000000300000000000000000000000,
|
|
100000000000100000000000100000000000100000000000,
|
|
100000000000000000000000000000000000000000000000,
|
|
100000000000000000000000100000000000000000000000,
|
|
300000000000300000000000300000000000000000000000,
|
|
200000000000200000000000200000000000200000000000,
|
|
200000000000000000000000000000000000000000000000,
|
|
100000000000000000000000100000000000000000000000,
|
|
100000000000000000100000000000000000000000000000,
|
|
100000000000000000000000100000000000000000000000,
|
|
300000000000000000000000000000000000000000000000,
|
|
500000000000000000000000000000000000000000800000,
|
|
000000000000000000000000000000000000000000000000,
|
|
100000000000000000000000100000000000000000000000,
|
|
100000000000000000000000000000000000000000000000,
|
|
#GOGOEND
|
|
100000000000100000000000100000000000000000000000,
|
|
100000000000000000000000000000000000000000000000,
|
|
100000000000100000000000100000000000000000000000,
|
|
100000000000000000000000000000000000000000000000,
|
|
100000000000100000000000100000000000000000000000,
|
|
200000000000000000000000000000000000000000000000,
|
|
100000000000100000000000100000000000000000000000,
|
|
200000000000000000000000000000000000000000000000,
|
|
000000000000200000000000000000000000200000000000,
|
|
000000000000200000000000000000000000200000000000,
|
|
000000000000200000000000000000000000200000000000,
|
|
000000000000000000000000000000000000000000000000,
|
|
100000000000100000000000000000000000000000000000,
|
|
100000000000100000000000000000000000000000000000,
|
|
500000000000000000000000000000000000000000800000,
|
|
000000000000000000000000000000000000000000000000,
|
|
#GOGOSTART
|
|
100000000000000000000000100000000000000000000000,
|
|
300000000000300000000000300000000000000000000000,
|
|
100000000000100000000000100000000000100000000000,
|
|
100000000000000000000000000000000000000000000000,
|
|
100000000000000000000000100000000000000000000000,
|
|
300000000000300000000000300000000000000000000000,
|
|
200000000000200000000000200000000000200000000000,
|
|
200000000000000000000000000000000000000000000000,
|
|
100000000000000000000000100000000000000000000000,
|
|
100000000000000000100000000000000000000000000000,
|
|
100000000000000000000000100000000000000000000000,
|
|
300000000000000000000000000000000000000000000000,
|
|
500000000000000000000000000000000000000000800000,
|
|
000000000000000000000000000000000000000000000000,
|
|
100000000000000000000000100000000000000000000000,
|
|
300000000000300000000000000000000000000000000000,
|
|
|
|
#GOGOEND
|
|
|
|
|
|
#END
|
|
|
|
|
|
COURSE:Easy
|
|
LEVEL:2
|
|
BALLOON:8
|
|
SCOREINIT:1130
|
|
SCOREDIFF:460
|
|
|
|
|
|
#START
|
|
|
|
|
|
100000000000000000000000000000000000000000000000,
|
|
100000000000000000000000000000000000000000000000,
|
|
#BPMCHANGE 74
|
|
#SCROLL 2.13
|
|
#MEASURE 5/4
|
|
700000000000
|
|
#BPMCHANGE 73.58
|
|
#SCROLL 2.14
|
|
000000000000
|
|
#BPMCHANGE 60.44
|
|
#SCROLL 2.61
|
|
000000000000
|
|
#BPMCHANGE 64.13
|
|
#SCROLL 2.46
|
|
000000000000800000000000,
|
|
#MEASURE 4/4
|
|
#BPMCHANGE 158
|
|
#SCROLL 1
|
|
000000000000000000000000000000000000000000000000,
|
|
100000000000000000000000000000000000000000000000,
|
|
100000000000000000000000000000000000000000000000,
|
|
100000000000000000000000000000000000000000000000,
|
|
100000000000000000000000000000000000000000000000,
|
|
300000000000000000000000000000000000000000000000,
|
|
#GOGOSTART
|
|
100000000000000000000000100000000000000000000000,
|
|
100000000000100000000000100000000000000000000000,
|
|
100000000000000000000000100000000000000000000000,
|
|
100000000000000000000000000000000000000000000000,
|
|
100000000000000000000000100000000000000000000000,
|
|
100000000000100000000000100000000000000000000000,
|
|
100000000000000000000000100000000000000000000000,
|
|
100000000000000000000000000000000000000000000000,
|
|
100000000000000000000000100000000000000000000000,
|
|
100000000000000000000000000000000000000000000000,
|
|
100000000000000000000000100000000000000000000000,
|
|
300000000000000000000000000000000000000000000000,
|
|
500000000000000000000000000000000000000000800000,
|
|
000000000000000000000000000000000000000000000000,
|
|
100000000000000000000000000000000000000000000000,
|
|
100000000000000000000000000000000000000000000000,
|
|
#GOGOEND
|
|
100000000000000000000000100000000000000000000000,
|
|
100000000000000000000000000000000000000000000000,
|
|
100000000000000000000000100000000000000000000000,
|
|
100000000000000000000000000000000000000000000000,
|
|
100000000000000000000000100000000000000000000000,
|
|
100000000000000000000000000000000000000000000000,
|
|
100000000000000000000000100000000000000000000000,
|
|
100000000000000000000000000000000000000000000000,
|
|
200000000000000000000000200000000000000000000000,
|
|
200000000000000000000000000000000000000000000000,
|
|
200000000000000000000000200000000000000000000000,
|
|
200000000000000000000000000000000000000000000000,
|
|
100000000000000000000000000000000000000000000000,
|
|
100000000000000000000000000000000000000000000000,
|
|
500000000000000000000000000000000000000000800000,
|
|
000000000000000000000000000000000000000000000000,
|
|
#GOGOSTART
|
|
100000000000000000000000100000000000000000000000,
|
|
100000000000100000000000100000000000000000000000,
|
|
100000000000000000000000100000000000000000000000,
|
|
100000000000000000000000000000000000000000000000,
|
|
100000000000000000000000100000000000000000000000,
|
|
300000000000300000000000300000000000000000000000,
|
|
100000000000000000000000100000000000000000000000,
|
|
100000000000000000000000000000000000000000000000,
|
|
100000000000000000000000100000000000000000000000,
|
|
100000000000000000000000000000000000000000000000,
|
|
100000000000000000000000100000000000000000000000,
|
|
300000000000000000000000000000000000000000000000,
|
|
500000000000000000000000000000000000000000800000,
|
|
000000000000000000000000000000000000000000000000,
|
|
100000000000000000000000100000000000000000000000,
|
|
300000000000000000000000000000000000000000000000,
|
|
|
|
#GOGOEND
|
|
|
|
|
|
#END
|
|
|