Files
2023-06-15 19:15:39 -05:00

317 lines
13 KiB
Plaintext

//TJADB Project
TITLE:RISE
TITLEJA:RISE
SUBTITLE:--Kohei Otomo/Major
SUBTITLEJA:「仮面ライダードライブ」より
BPM:165
WAVE:RISE.ogg
OFFSET:-1.437
DEMOSTART:59.618
BGMOVIE:RISE.mp4
COURSE:Oni
LEVEL:7
SCOREINIT:740
SCOREDIFF:170
#START
300000000000000000000000000000000000000000000000,
300000000000000000000000000000000000000000000000,
300000000000000000000000000000000000000000100100,
100000100000000000100000000000100000100000000000,
300000000000000000000000000000100000100000100000,
000000000000200000200000100000200000000000000000,
100000000000200000200000100000200000000000100100,
200000100000100000200000100000100000100100100100,
100000000000000000600000000000000000000000000000,
000000000000000000000008000000000000000000100100,
200000100000100000200000100000100000200000100100,
200000100000100000200000100000100000200000100100,
200000100000100000200000100000100000200000100100,
200000100000100000200000100000100000200000000000,
300000000000300000000000300000000000300000000000,
300000300000000000300000500000000000000008000000,
300000000000000000000000000000000000000000100100,
100000100000000000100000000000100000200000100000,
100000000000200000100000100000100000200000100000,
100000100000200000100000100000100000200000100100,
100000000000200000200000100000100000200000200000,
100000100000200000200000100000100000200000100000,
000000100000200000000000100000100000200000100000,
000000300000400000000000400000000000400000100100,
100000000000200000100000100000100000200000100000,
100000100000200000100000100000100000200000100000,
100000000000200000100000100000100000200000100000,
100000100000200000100000100000100000200000100000,
100000000000200000200000100000100000200000200000,
100000100000200000200000100000100000200000100000,
000000100000200000000000100000100000200000100000,
000000300000400000000000400000000000100100100100,
100000100000100000100000000000200000100000000000,
200000100000100000200000000000200000100000000000,
100000100000100000100000000000200000100000000000,
100000000000100000100000000000200000200000000000,
100000100000100000100000000000200000100000000000,
200000100000100000200000000000200000100000000000,
100000100000100000100000100000100000100000100000,
100000100100100000100100100000100100100000100100,
#GOGOSTART
100000000000200000000100100000100000200000100000,
100000100000200000000100100000100000200000100100,
100000000000200000000100100000100000200000100100,
100000100000200000000100100000100000100100100100,
100000100000200000100100100000100000200000100100,
100000100000200000100100100000100000200000100100,
100000000000200000100100100000100000200000100000,
000000100000200000000000500000000000000008000000,
100000000000200000000100100000100000200000100000,
100000100000200000000100100000100000200000100100,
100000000000200000000100100000100000200000100100,
100000100000200000000100100000100000100100100100,
100000100000200000100100100000100000200000100100,
100000100000200000100100100000100000200000100100,
100000000000200000100100100000100000200000300000,
300000000000300000300000100100100000100100100000,
#GOGOEND
300000000000000000600000000000000000000000000000,
000000000000000000000008000000000000000000000000,
300000000000300000000000300000000000300000000000,
300000300000000000300000000000000000000000000000,
#END
COURSE:Hard
LEVEL:5
SCOREINIT:780
SCOREDIFF:190
#START
300000000000000000000000000000000000000000000000,
300000000000000000000000000000000000000000000000,
300000000000000000000000000000000000100000100000,
100000000000100000100000000000100000000000000000,
300000000000000000000000000000100000100000100000,
000000000000100000000000100000100000000000000000,
100000000000100000000000100000100000000000100000,
100000000000100000100000000000000000100000000000,
100000000000000000500000000000000000000000000000,
000000000000000000000800000000000000000000000000,
300000000000000000100000000000100000100000000000,
300000000000000000100000000000100000100000000000,
300000000000000000100000000000100000100000000000,
300000000000000000100000000000100000100000000000,
300000000000300000000000300000000000300000000000,
300000300000000000300000000000000000000000000000,
300000000000000000000000000000000000000000100100,
100000100000000000100000000000100000000000100000,
300000000000200000000000100000100000200000000000,
100000000000200000000000100000100000200000100000,
100000000000200000000000100000100000200000000000,
100000100000200000100000000000100000200000100000,
000000000000200000000000100000200000000000300000,
000000000000300000000000300000000000100100100000,
100000000000200000000000100000100000200000000000,
100000000000200000000000100000100000200000000000,
300000000000200000000000100000100000200000000000,
100000100000200000200000100000100000100000000000,
300000000000200000000000100000100000200000000000,
100000000000200000000000100000100000200000100000,
000000000000200000000000100000100000200000100000,
100000000000100000000000400000000000000000000000,
100000100000100000100000000000000000100000000000,
100000000000100000100000000000200000200000000000,
100000100000100000100000000000000000100000000000,
100000000000100000100000000000200000200000000000,
100000100000100000100000000000000000100000000000,
100000000000100000100000000000200000200000000000,
100000100000100000100000100000100000100000500000,
000000000000000000000000000000000800000000000000,
#GOGOSTART
100000000000200000000000100000100000200000100000,
100000000000200000000000100000100000200000100000,
100000000000200000000000100000100000200000100000,
100000000000200000000000100000200000200000100000,
100000000000100000100100100000000000200000000000,
100000000000100000100100100000000000200000000000,
300000000000100000100100100000000000200000000000,
300000000000300000000000500000000800000000000000,
100000000000200000000000100000100000200000100000,
100000000000200000000000100000100000200000100000,
100000000000200000000000100000100000200000100000,
100000000000200000000000100000100000200000100000,
100000000000100000100100100000100000100000000000,
100000000000100000100100100000100000100000000000,
300000000000100000100000100000100000000000100000,
100000000000100000100000000000000000100000000000,
#GOGOEND
300000000000000000500000000000000000000000000000,
000000000000000000000800000000000000000000000000,
300000000000300000000000300000000000300000000000,
300000300000000000300000000000000000000000000000,
#END
COURSE:Normal
LEVEL:6
SCOREINIT:880
SCOREDIFF:240
#START
300000000000000000000000000000000000000000000000,
300000000000000000000000000000000000000000000000,
300000000000000000000000000000000000100000100000,
100000000000100000100000000000100000000000000000,
100000000000000000000000000000100000100000100000,
000000000000100000000000100000100000000000000000,
100000000000000000000000000000000000000000100000,
100000000000100000100000000000000000100000000000,
100000000000000000500000000000000000000000000000,
000000000000000000800000000000000000000000000000,
300000000000000000300000000000300000300000000000,
300000000000000000000000000000000000000000000000,
300000000000000000300000000000300000300000000000,
300000000000000000000000000000000000000000000000,
300000000000300000000000300000000000300000000000,
300000300000000000300000000000000000000000000000,
300000000000000000000000000000000000000000000000,
000000000000000000000000000000000000000000000000,
100000000000200000000000100000100000100000000000,
100000000000200000000000100000000000200000000000,
100000000000200000000000100000100000100000000000,
100000000000200000000000100000000000100000100000,
000000000000000000000000100000100000000000100000,
100000000000300000000000300000000000300000000000,
100000000000200000000000100000100000100000000000,
100000000000200000000000100000000000000000000000,
100000000000200000000000100000100000100000000000,
100000000000200000000000100000000000000000000000,
100000000000200000000000100000100000100000000000,
100000000000200000000000100000000000100000100000,
000000000000000000000000100000100000000000100000,
100000000000000000000000100000000000000000000000,
100000100000100000100000000000000000100000000000,
100000000000100000100000000000000000000000000000,
100000100000100000100000000000000000100000000000,
100000000000100000100000000000000000000000000000,
100000100000100000100000000000000000100000000000,
100000000000100000100000000000000000000000000000,
100000100000100000100000100000000000000000000000,
500000000000000000000000000000800000000000000000,
#GOGOSTART
100000000000200000000000100000100000100000000000,
100000000000200000000000100000000000000000000000,
100000000000200000000000100000100000100000000000,
100000000000200000000000100000000000000000000000,
300000000000100000000000100000000000100000000000,
300000000000100000000000100000000000100000000000,
300000000000100000000000100000000000100000000000,
300000000000500000000000000000000000800000000000,
100000000000200000000000100000100000100000000000,
100000000000200000000000100000000000000000000000,
100000000000200000000000100000100000100000000000,
100000000000200000000000100000000000000000000000,
300000000000100000000000100000000000100000000000,
100000000000100000000000100000000000100000000000,
300000000000000000000000100000000000000000100000,
100000000000100000100000000000000000100000000000,
#GOGOEND
500000000000000000000000000000000000000000000000,
000000000000000000000000800000000000000000000000,
300000000000300000000000300000000000300000000000,
300000300000000000300000000000000000000000000000,
#END
COURSE:Easy
LEVEL:3
SCOREINIT:720
SCOREDIFF:280
#START
300000000000000000000000000000000000000000000000,
300000000000000000000000000000000000000000000000,
300000000000000000000000000000000000000000000000,
100000000000000000000000100000000000000000000000,
300000000000000000000000000000000000000000000000,
100000000000000000000000100000000000000000000000,
100000000000000000000000000000000000000000000000,
500000000000000000000000800000000000000000000000,
300000000000000000000000000000000000000000000000,
300000000000000000000000000000000000000000000000,
300000000000000000000000000000000000000000000000,
300000000000000000000000000000000000000000000000,
300000000000000000000000000000000000000000000000,
300000000000000000000000000000000000000000000000,
300000000000000000000000300000000000000000000000,
300000000000000000000000000000000000000000000000,
000000000000000000000000000000000000000000000000,
100000000000000000000000100000000000000000000000,
300000000000000000000000100000000000100000000000,
000000000000000000000000100000000000100000000000,
300000000000000000000000100000000000100000000000,
000000000000000000000000000000000000000000000000,
100000000000000000000000100000000000100000000000,
300000000000300000000000300000000000000000000000,
100000000000000000000000100000000000100000000000,
000000000000000000000000100000000000100000000000,
300000000000000000000000100000000000100000000000,
000000000000000000000000000000000000000000000000,
300000000000000000000000100000000000100000000000,
000000000000000000000000000000000000000000000000,
100000000000000000000000100000000000100000000000,
100000000000000000000000300000000000000000000000,
100000000000100000000000000000000000100000000000,
100000000000000000100000000000000000000000000000,
100000000000100000000000000000000000100000000000,
100000000000000000100000000000000000000000000000,
100000000000100000000000000000000000100000000000,
100000000000000000100000000000000000000000000000,
100000000000000000000000000000000000000000000000,
500000000000000000000000800000000000000000000000,
#GOGOSTART
100000000000000000000000100000000000100000000000,
100000000000000000000000100000000000100000000000,
100000000000000000000000100000000000100000000000,
100000000000000000000000100000000000100000000000,
300000000000000000000000300000000000000000000000,
300000000000000000000000300000000000000000000000,
300000000000000000000000300000000000000000000000,
300000000000000000000000000000000000000000000000,
100000000000000000000000100000000000100000000000,
100000000000000000000000100000000000100000000000,
100000000000000000000000100000000000100000000000,
100000000000000000000000100000000000100000000000,
100000000000000000000000100000000000000000000000,
100000000000000000000000100000000000000000000000,
100000000000100000000000100000000000000000000000,
300000000000000000000000300000000000000000000000,
#GOGOEND
600000000000000000000000000000000000000000000000,
000000000000000000800000000000000000000000000000,
300000000000300000000000300000000000300000000000,
300000000000000000300000000000000000000000000000,
#END