forked from ESE/ESE
323 lines
13 KiB
Plaintext
323 lines
13 KiB
Plaintext
//TJADB Project
|
||
TITLE:Re: member
|
||
TITLEJA:Re:member
|
||
SUBTITLE:--FLOW/NARUTO
|
||
BPM:172
|
||
WAVE:Re member.ogg
|
||
OFFSET:-1.621
|
||
DEMOSTART:57.331
|
||
|
||
COURSE:Oni
|
||
LEVEL:8
|
||
SCOREINIT:680
|
||
SCOREDIFF:130
|
||
|
||
|
||
#START
|
||
|
||
|
||
100000100000100000100000100000100000100000100000,
|
||
200000200000200000200000200000200000200000200000,
|
||
100000100000100000100000100000100000100000100000,
|
||
200000200000200000200000200000200000200000200000,
|
||
100000100000100000100000100000100000100000100000,
|
||
400000000000000000000000100100000100200000000000,
|
||
100000200000200000100000200000000000200000100000,
|
||
200000200000200000100000000000100100200000000000,
|
||
100000200000200000100000200000000000200000100000,
|
||
200000200000200000100000000000100100200000000000,
|
||
100000200000200000100000200000000000200000100000,
|
||
200000200000200000100000000000100100200000000000,
|
||
100000200000200000100000200000000000200000100000,
|
||
200000200000200000100000100100100100100000100100,
|
||
200000000000200000000000200000000000200000000000,
|
||
200000000000200000000000200000100000100000100000,
|
||
100000200000100000200000100000200000100000200000,
|
||
100000200000100000200000100000200000100000200200,
|
||
100000200000100000200000100000200000100000200000,
|
||
100000200000100000200000100000200000100000100100,
|
||
200000000000100000200000000000200000100000200000,
|
||
000000200000100000200000000000200000100000100100,
|
||
100000100100100000100100100000100100100000100100,
|
||
100000100000100000200000000000100000100000100000,
|
||
100000200000100000200000100000200000100000200000,
|
||
100000200000100000200000100000200000100000200200,
|
||
100000200000100000200000100000200000100000200000,
|
||
100000200000100000200000100000200000100000100100,
|
||
200000000000100000200000000000200000100000200000,
|
||
000000200000100000200000000000200000100000100100,
|
||
100000100100100000100100100000100100100000100100,
|
||
100000100000200000000000200200100100100000100100,
|
||
200000000000100000200000100000100000200000000000,
|
||
100000000000100000200000100000100000200000000000,
|
||
100000100000100000100000100000100000200000000000,
|
||
100000100000100000100000100000100000200000000000,
|
||
100000000000100000000000100100100000100100100000,
|
||
100100200000100100200000100200200000100200200000,
|
||
100200200200100200200200100200200200100200200200,
|
||
100200200200100100100000100100100000100100100100,
|
||
|
||
#GOGOSTART
|
||
100000200200100000200000100000200200100000200000,
|
||
100000200200100000200000100000200200100000200000,
|
||
100000200200100100200000100000200200100100200000,
|
||
100000200200100100200200100100200200100000200000,
|
||
100000000000200000000000100100100000200000000000,
|
||
100000000000200000000000100100100000200000000000,
|
||
100000000000200000000000100100100000200000000000,
|
||
100100100100100100100100100100100100100100100100,
|
||
100000200200100000200000100000200200100000200000,
|
||
100000200200100000200000100000200200100000200000,
|
||
100000200200100100200000100000200200100100200000,
|
||
100000200200100100200200100100200200100000200000,
|
||
100000100000200000100000100100100000200000100000,
|
||
100000100000200000000000100100100100100100100100,
|
||
|
||
#GOGOEND
|
||
100000200000200000100000200000000000200000100000,
|
||
200000200000200000100000000000100100200000000000,
|
||
100000200000200000100000200000000000200000100000,
|
||
200000200000200000100000000000100100200000000000,
|
||
100000200200200000100000200200200000200000100000,
|
||
100100100100200000100000000000100100200000000000,
|
||
100000200200200000100000200200200000200000100000,
|
||
100100100100200000100000000000300000300000400000,
|
||
|
||
|
||
#END
|
||
|
||
|
||
COURSE:Hard
|
||
LEVEL:5
|
||
SCOREINIT:780
|
||
SCOREDIFF:200
|
||
|
||
|
||
#START
|
||
|
||
|
||
100000100000100000100000100000100000100000000000,
|
||
200000200000200000200000200000200000200000000000,
|
||
100000100000100000100000100000100000100000000000,
|
||
200000200000200000200000200000200000200000000000,
|
||
100000100000100000100000100000100000100000000000,
|
||
400000000000000000000000100000000000400000000000,
|
||
000000100000100000000000100000000000200000000000,
|
||
100000100000200000100000000000000000000000000000,
|
||
000000100000100000000000100000000000200000000000,
|
||
100000100000200000100000000000000000000000000000,
|
||
000000100000100000000000100000000000200000000000,
|
||
100000100000200000100000000000000000000000000000,
|
||
000000100000100000000000100000000000200000000000,
|
||
100000100000200000100000500000000000000800000000,
|
||
200000000000200000000000200000000000200000000000,
|
||
200000000000200000000000200000000000000000000000,
|
||
100000100000200000000000200000200000000000100000,
|
||
000000100000200000100000000000200000200000000000,
|
||
100000200000100000000000100000000000200000100000,
|
||
000000000000200000100000000000200000200000000000,
|
||
200000000000100000200000000000200000100000200000,
|
||
000000200000100000200000000000200000100000000000,
|
||
100000000000100000000000100000000000100000000000,
|
||
100000100000100000200000000000100000100000100000,
|
||
100000200000100000000000200000200000000000100000,
|
||
000000100000200000100000000000200000200000000000,
|
||
100000200000100000000000100000000000200000100000,
|
||
000000000000200000100000000000200000200000000000,
|
||
100000000000100000200000000000200000100000200000,
|
||
000000200000100000200000000000200000100000000000,
|
||
500000000000000000000000000000000000000000000000,
|
||
000000000000000000000800000000000000000000000000,
|
||
100000000000100000200000100000000000200000000000,
|
||
100000000000100000200000100000000000200000000000,
|
||
100000000000100000000000100000100000200000000000,
|
||
100000200000100000100000000000000000200000000000,
|
||
100000000000100000200000100000000000100000000000,
|
||
100000000000100000200000100000000000100000000000,
|
||
100000000000100000000000100000000000100000000000,
|
||
500000000000000000000000000000000000000800000000,
|
||
#GOGOSTART
|
||
100000000000200000100000200000000000200000100000,
|
||
100000200000000000200000000000000000100000000000,
|
||
100000100000100000200000000000100000000000500000,
|
||
000000000000000000000800000000000000000000000000,
|
||
100000100000200000000000100000100000200000000000,
|
||
100000100000200000100000100000100000200000000000,
|
||
100000100000200000000000100000100000200000000000,
|
||
500000000000000000000800000000000000000000000000,
|
||
100000000000200000100000200000000000200000100000,
|
||
100000200000000000200000000000000000100000000000,
|
||
100000100000100000200000000000100000000000500000,
|
||
000000000000000000000000000800000000000000000000,
|
||
100000100000200000000000100000100000200000000000,
|
||
100000100000200000100000500000000000000000000800,
|
||
#GOGOEND
|
||
000000100000100000000000100000000000200000000000,
|
||
100000100000200000100000000000000000000000000000,
|
||
000000100000100000000000100000000000200000000000,
|
||
100000100000200000100000000000000000000000000000,
|
||
000000100000100000000000100000100000200000000000,
|
||
100000100000200000100000000000000000000000000000,
|
||
000000100000100000000000100000100000200000000000,
|
||
100000100000200000100000000000300000300000400000,
|
||
|
||
|
||
#END
|
||
|
||
|
||
COURSE:Normal
|
||
LEVEL:5
|
||
SCOREINIT:1060
|
||
SCOREDIFF:330
|
||
|
||
|
||
#START
|
||
|
||
|
||
100000000000100000000000100000000000000000000000,
|
||
100000000000100000000000100000000000000000000000,
|
||
100000000000100000000000100000000000100000000000,
|
||
500000000000000000000000800000000000000000000000,
|
||
100000000000000000000000100000000000100000000000,
|
||
400000000000000000000000100000000000400000000000,
|
||
000000100000100000000000100000000000000000000000,
|
||
100000000000000000300000000000000000000000000000,
|
||
000000100000100000000000100000000000000000000000,
|
||
100000000000000000300000000000000000000000000000,
|
||
000000100000100000000000100000000000000000000000,
|
||
100000000000000000300000000000000000000000000000,
|
||
000000100000100000000000100000000000000000000000,
|
||
100000000000000000300000000000000000000000000000,
|
||
200000000000200000000000200000000000200000000000,
|
||
200000000000200000000000200000000000000000000000,
|
||
100000000000000000000000100000000000000000100000,
|
||
000000100000000000100000000000000000000000000000,
|
||
100000000000000000000000100000000000000000100000,
|
||
000000100000000000100000000000000000000000000000,
|
||
100000000000000000100000000000000000000000100000,
|
||
000000000000000000100000000000000000200000000000,
|
||
500000000000000000000000000000000000000000000000,
|
||
000000000000000000800000000000000000000000000000,
|
||
100000000000100000000000100000000000000000100000,
|
||
000000100000000000100000000000000000000000000000,
|
||
100000000000100000000000100000000000000000100000,
|
||
000000100000000000100000000000000000000000000000,
|
||
100000000000000000100000000000000000000000100000,
|
||
000000000000000000100000000000000000200000000000,
|
||
500000000000000000000000000000000000000000000000,
|
||
000000000000000000800000000000000000000000000000,
|
||
100000000000100000100000000000000000200000000000,
|
||
100000000000100000100000000000000000200000000000,
|
||
100000000000000000000000100000000000200000000000,
|
||
100000000000100000100000000000000000200000000000,
|
||
100000000000100000000000100000000000000000000000,
|
||
100000000000100000000000100000000000000000000000,
|
||
500000000000000000000000000000000000000000000000,
|
||
000000000000000000000000800000000000000000000000,
|
||
#GOGOSTART
|
||
100000000000200000000000100000000000200000000000,
|
||
100000000000000000000000100000000000000000000000,
|
||
100000000000000000100000000000100000000000000000,
|
||
500000000000000000000000800000000000000000000000,
|
||
100000000000200000000000000000200000200000000000,
|
||
100000000000200000000000000000200000200000000000,
|
||
100000000000200000000000000000200000200000000000,
|
||
500000000000800000000000000000000000000000000000,
|
||
100000000000200000000000100000000000200000000000,
|
||
100000000000000000000000100000000000000000000000,
|
||
100000000000000000100000000000100000000000500000,
|
||
000000000000000000000000800000000000000000000000,
|
||
100000000000200000000000000000200000200000000000,
|
||
100000000000200000000000100000000000000000000000,
|
||
#GOGOEND
|
||
100000000000000000100000500000000000000000000000,
|
||
000000000000000000000000000000800000000000000000,
|
||
000000100000100000000000100000000000000000000000,
|
||
100000000000000000300000000000000000000000000000,
|
||
000000100000100000000000100000000000200000000000,
|
||
100000000000000000300000000000000000000000000000,
|
||
000000100000100000000000100000000000200000000000,
|
||
100000000000000000300000000000000000000000400000,
|
||
|
||
|
||
#END
|
||
|
||
|
||
COURSE:Easy
|
||
LEVEL:3
|
||
SCOREINIT:900
|
||
SCOREDIFF:260
|
||
|
||
|
||
#START
|
||
|
||
|
||
100000000000000000000000100000000000000000000000,
|
||
100000000000000000000000100000000000000000000000,
|
||
100000000000000000000000100000000000000000000000,
|
||
500000000000000000000000800000000000000000000000,
|
||
100000000000000000000000100000000000100000000000,
|
||
300000000000000000000000000000000000000000000000,
|
||
000000300000000000000000100000000000000000000000,
|
||
100000000000000000300000000000000000000000000000,
|
||
000000300000000000000000100000000000000000000000,
|
||
100000000000000000300000000000000000000000000000,
|
||
000000300000000000000000100000000000000000000000,
|
||
100000000000000000300000000000000000000000000000,
|
||
000000300000000000000000100000000000000000000000,
|
||
100000000000000000300000000000000000000000000000,
|
||
000000000000000000000000000000000000000000000000,
|
||
000000000000000000000000000000000000000000000000,
|
||
100000000000000000000000000000000000000000100000,
|
||
000000000000000000100000000000000000000000000000,
|
||
100000000000000000000000000000000000000000100000,
|
||
000000000000000000100000000000000000000000000000,
|
||
100000000000000000100000000000000000000000100000,
|
||
000000000000000000100000000000000000100000000000,
|
||
500000000000000000000000000000000000000000000000,
|
||
000000000000000000800000000000000000000000000000,
|
||
100000000000000000000000000000000000000000100000,
|
||
000000000000000000100000000000000000000000000000,
|
||
100000000000000000000000000000000000000000100000,
|
||
000000000000000000100000000000000000000000000000,
|
||
100000000000000000100000000000000000000000100000,
|
||
000000000000000000100000000000000000100000000000,
|
||
500000000000000000000000000000000000000000000000,
|
||
000000000000000000800000000000000000000000000000,
|
||
100000000000000000000000000000000000200000000000,
|
||
100000000000000000000000000000000000200000000000,
|
||
100000000000000000000000100000000000200000000000,
|
||
100000000000000000100000000000000000000000000000,
|
||
100000000000100000000000100000000000000000000000,
|
||
100000000000100000000000100000000000100000000000,
|
||
500000000000000000000000000000000000000000000000,
|
||
000000000000000000000000800000000000000000000000,
|
||
#GOGOSTART
|
||
100000000000100000000000100000000000000000000000,
|
||
100000000000100000000000100000000000000000000000,
|
||
100000000000000000100000000000100000000000000000,
|
||
500000000000000000000000800000000000000000000000,
|
||
100000000000200000000000000000000000000000000000,
|
||
100000000000200000000000000000000000000000000000,
|
||
100000000000200000000000000000000000000000000000,
|
||
500000000000800000000000000000000000000000000000,
|
||
100000000000100000000000100000000000000000000000,
|
||
100000000000100000000000100000000000000000000000,
|
||
100000000000000000100000000000100000000000000000,
|
||
500000000000000000000000800000000000000000000000,
|
||
100000000000000000000000100000000000000000000000,
|
||
100000000000100000000000100000000000100000000000,
|
||
#GOGOEND
|
||
100000000000000000000000500000000000000000000000,
|
||
000000000000000000000000000000800000000000000000,
|
||
000000300000000000000000100000000000000000000000,
|
||
100000000000000000300000000000000000000000000000,
|
||
000000300000000000000000100000000000000000000000,
|
||
100000000000000000300000000000000000000000000000,
|
||
000000300000000000000000100000000000000000000000,
|
||
100000000000000000300000000000000000000000400000,
|
||
|
||
|
||
#END
|
||
|