Files
2023-01-17 00:45:18 -05:00

706 lines
20 KiB
Plaintext
Raw Permalink Blame History

This file contains ambiguous Unicode characters
This file contains Unicode characters that might be confused with other characters. If you think that this is intentional, you can safely ignore this warning. Use the Escape button to reveal them.
//TJADB Project
TITLE:Return of Ultraman
TITLEJA:帰ってきたウルトラマン
SUBTITLE:--Misuzu Children’s Choral Group/Return of Ultraman
SUBTITLEJA:(ウルトラマン・ブラス)
BPM:126.72
WAVE:Return of Ultraman.ogg
OFFSET:-2.100
DEMOSTART:2.099
COURSE:Oni
LEVEL:5
BALLOON:10,10,10,10,10
SCOREINIT:860
SCOREDIFF:200
#START
700000000000000000000000000000800000000000000000,
#BPMCHANGE 130.54
#SCROLL 0.97
000000100000100000100000000000100000000000100000,
#BPMCHANGE 131.55
#SCROLL 0.96
500000000000000000000000000000000000000008000000,
#BPMCHANGE 131.04
#SCROLL 0.97
100000100000200000200000100000100000200000000000,
700000000000000000000000000000800000000000000000,
#BPMCHANGE 130.64
000000100000100000100000000000100000000000100100,
#BPMCHANGE 129.93
#SCROLL 0.98
500000000000000000000000
#BPMCHANGE 133.63
#SCROLL 0.95
000000000000000008000000,
#BPMCHANGE 129.34
#SCROLL 0.98
100000100000000000100000000000100000000000100000,
100000100000200000000000100000100000200000000000,
100000100000200000000000100000100000200000100000,
#BPMCHANGE 129.64
100000000100100000200000100000000000200000000000,
#BPMCHANGE 129.34
500000000000000000000000000008000000000000000000,
#BPMCHANGE 129.04
100000100000200000000000100000100000200000000000,
#BPMCHANGE 129.93
100000100000200000000000100000100000200000000000,
#BPMCHANGE 128.46
#SCROLL 0.99
100000000100100000200000100000000000100000000000,
#BPMCHANGE 132.38
#SCROLL 0.96
500000000000000000000000
#BPMCHANGE 128.16
#SCROLL 0.99
000008000000000000000000,
#BPMCHANGE 129.64
#SCROLL 0.98
100000200000100000200000100000100000200000200000,
#BPMCHANGE 130.24
#SCROLL 0.97
100000200000100000200000100000100000200000000000,
#BPMCHANGE 126.16
#SCROLL 1
100000000000200000100000100000000000200000000000,
#BPMCHANGE 128.75
#SCROLL 0.98
100000000000200000100000100000000000200000000000,
#BPMCHANGE 127.58
#SCROLL 0.99
100000000000200000100000100000000000200000000000,
#BPMCHANGE 129.34
#SCROLL 0.98
700000000000000000000000
#BPMCHANGE 129.93
000000800000000000000000,
#BPMCHANGE 127.3
#SCROLL 1
300000000100100000200000300000000100100000200000,
#BPMCHANGE 128.16
#SCROLL 0.99
300000000100100000200000200000000000100000100000,
#GOGOSTART
#BPMCHANGE 129.04
#SCROLL 0.98
200000000200100000100000200000000000100000100000,
200000000200100000100000200000100100200200100100,
#BPMCHANGE 127.3
#SCROLL 1
200000300000000000300000300000000000300000000000,
#BPMCHANGE 128.75
#SCROLL 0.98
700000000000000000000000000000800000000000000000,
#GOGOEND
#BPMCHANGE 127.01
#SCROLL 1
100000000000200000100000000000100000200000100000,
#BPMCHANGE 129.04
#SCROLL 0.98
100000000000200000100000000000100000200000000000,
#BPMCHANGE 130.36
#SCROLL 0.97
100100100000200000100000200000100000200000100000,
#BPMCHANGE 128.63
#SCROLL 0.99
200200100000200200100000000000000000000000000000,
#BPMCHANGE 127.58
#SCROLL 0.99
100000100000200000000000100000100000200000000000,
#BPMCHANGE 129.34
#SCROLL 0.98
100000100000200000000000100000100000200000000000,
#BPMCHANGE 128.46
#SCROLL 0.99
100000000100100000200000100000000000200000000000,
#BPMCHANGE 128.75
#SCROLL 0.98
500000000000000000000000000008000000000000000000,
#BPMCHANGE 128.46
#SCROLL 0.99
100000100000200000000000100000100000200000000000,
#BPMCHANGE 128.16
100000100000200000000000100000100000200000000000,
#BPMCHANGE 128.75
#SCROLL 0.98
100000000100100000200000100000000000200000000000,
#BPMCHANGE 132.38
#SCROLL 1.01
500000000000000000000000
#BPMCHANGE 125.87
000008000000000000000000,
#BPMCHANGE 127.01
#SCROLL 1
100000200000100000200000
#BPMCHANGE 131.76
#SCROLL 0.96
100000100000200000200000,
#BPMCHANGE 131.15
#SCROLL 0.97
100000200000100000200000
#BPMCHANGE 127.58
#SCROLL 0.99
100000100000200000000000,
#BPMCHANGE 127.07
#SCROLL 1
100000000000200000100000100000000000200000000000,
#BPMCHANGE 125.54
#SCROLL 1.01
100000000000200000100000100000000000200000000000,
#BPMCHANGE 127.87
#SCROLL 0.99
100000000000200000100000100000000000200000000000,
#BPMCHANGE 128.46
700000000000000000000000000000800000000000000000,
#BPMCHANGE 128.16
300000000200100000100000300000200000100000100000,
#BPMCHANGE 126.44
#SCROLL 1
300000000200100000100000200000000000100000100000,
#GOGOSTART
#BPMCHANGE 126.72
200000000200100000100000200000000000100000100000,
#BPMCHANGE 129.34
#SCROLL 0.98
200000000200100000100000
#BPMCHANGE 131.15
#SCROLL 0.97
200000100100200200100100,
#MEASURE 2/4
#BPMCHANGE 125.31
#SCROLL 1.01
200000300000000000300000,
#BPMCHANGE 127.01
#SCROLL 1
300000000000300000000000,
#MEASURE 4/4
600000000000000000000000000000000000000008000000,
#GOGOEND
#BPMCHANGE 127.58
#SCROLL 0.99
100000000000200000100000000000100000200000100000,
#BPMCHANGE 127.3
#SCROLL 1
100000000000200000100000000000100000200000000000,
#BPMCHANGE 131.14
#SCROLL 0.97
100100100000200000100000200000100000200000100000,
#BPMCHANGE 129.34
#SCROLL 0.98
200200100000200200100000
#BPMCHANGE 125.87
#SCROLL 1.01
200000100000
#BPMCHANGE 110.14
#SCROLL 1.15
200000100000,
#BPMCHANGE 88.63
#SCROLL 1.43
300000000000
#BPMCHANGE 89.98
#SCROLL 1.41
300000000000
#BPMCHANGE 78.81
#SCROLL 1.61
300000000000
#BPMCHANGE 64.86
#SCROLL 1.95
300000000000,
#BPMCHANGE 68.6
#SCROLL 1.85
600000000000000000000000000000000000000000000000,
000000000008000000000000000000000000000000000000,
#END
COURSE:Hard
LEVEL:5
BALLOON:10,10,10,10,10
SCOREINIT:910
SCOREDIFF:200
#START
700000000000000000000000000800000000000000000000,
#BPMCHANGE 130.53596496582
000000100000100000100000000000100000000000100000,
#BPMCHANGE 131.551681518555
500000000000000000000000000000000000000800000000,
#BPMCHANGE 131.043426513672
100000100000200000000000100000100000200000000000,
#BPMCHANGE 131.041717529297
700000000000000000000000000800000000000000000000,
#BPMCHANGE 130.639129638672
000000100000100000100000000000100000000000100000,
#BPMCHANGE 129.934982299805
500000000000000000000000
#BPMCHANGE 133.629196166992
000000000000000800000000,
#BPMCHANGE 129.33952331543
100000100000000000100000000000100000000000100000,
100000100000000000100000100000000000200000000000,
100000100000000000100000100000000000000000000000,
#BPMCHANGE 129.637405395508
100000000000200000100000100000000000200000000000,
#BPMCHANGE 129.337844848633
500000000000000000000000000800000000000000000000,
#BPMCHANGE 129.044662475586
100000100000000000100000100000000000200000000000,
#BPMCHANGE 129.934982299805
100000100000000000100000100000000000000000000000,
#BPMCHANGE 128.455657958984
100000000000200000100000100000000000200000000000,
#BPMCHANGE 132.375930786133
500000000000000000000000
#BPMCHANGE 128.163436889648
000800000000000000000000,
#BPMCHANGE 129.635726928711
100000200000100000000000100000200000100000000000,
#BPMCHANGE 130.235626220703
100000200000100000000000100000200000100000000000,
#BPMCHANGE 126.15747833252
100000000000200000100000100000000000200000000000,
#BPMCHANGE 128.748107910156
100000000000200000100000100000000000200000000000,
#BPMCHANGE 127.584053039551
100000000000200000100000100000000000200000000000,
#BPMCHANGE 129.337844848633
700000000000000000000000
#BPMCHANGE 129.934982299805
000800000000000000000000,
#BPMCHANGE 127.297134399414
300000000100100000100000300000000100100000000000,
#BPMCHANGE 128.163436889648
300000000100100000200000200000000000100000100000,
#BPMCHANGE 129.042999267578
#GOGOSTART
100000000200200000000000200000000000100000100000,
100000000200200000000000500000000000000800000000,
#BPMCHANGE 127.295516967773
000000300000000000300000300000000000300000000000,
#BPMCHANGE 128.749481201172
700000000000000000000000000800000000000000000000,
#BPMCHANGE 127.008277893066
#GOGOEND
100000000000200000100000000000100000200000000000,
#BPMCHANGE 129.042999267578
100000000000200000100000000000100000200000000000,
#BPMCHANGE 130.355880737305
100100100000000000000000000000000000000000000000,
#BPMCHANGE 128.632171630859
100100100000100100100000000000000000000000000000,
#BPMCHANGE 127.584053039551
100000100000000000100000100000000000200000000000,
#BPMCHANGE 129.337844848633
100000100000000000100000100000000000200000000000,
#BPMCHANGE 128.455657958984
100000000000200000100000100000000000200000000000,
#BPMCHANGE 128.749481201172
500000000000000000000000000800000000000000000000,
#BPMCHANGE 128.455657958984
100000100000000000100000100000000000200000000000,
#BPMCHANGE 128.163436889648
100000100000000000100000100000000000200000000000,
#BPMCHANGE 128.748107910156
100000000000200000100000100000000000200000000000,
#BPMCHANGE 132.375930786133
500000000000000000000000
#BPMCHANGE 125.8740234375
000800000000000000000000,
#BPMCHANGE 127.009895324707
100000200000100000000000
#BPMCHANGE 131.756195068359
100000200000100000000000,
#BPMCHANGE 131.14567565918
100000200000100000000000
#BPMCHANGE 127.582427978516
100000200000100000000000,
#BPMCHANGE 127.066375732422
100000000000200000100000100000000000200000000000,
#BPMCHANGE 125.53955078125
100000000000200000100000100000000000200000000000,
#BPMCHANGE 127.872268676758
100000000000200000100000100000000000200000000000,
#BPMCHANGE 128.455657958984
700000000000000000000000000800000000000000000000,
#BPMCHANGE 128.163436889648
300000000100100000000000300000100000100000100000,
#BPMCHANGE 126.439544677734
300000000100100000200000200000000000100000100000,
#BPMCHANGE 126.723937988281
#GOGOSTART
100000000200200000200000200000000000100000100000,
#BPMCHANGE 129.337844848633
100000000200200000000000
#BPMCHANGE 131.14567565918
500000000000000800000000,
#BPMCHANGE 125.313545227051
#MEASURE 2/4
000000300000000000300000,
#BPMCHANGE 127.009895324707
300000000000300000000000,
#BPMCHANGE 127.008277893066
#MEASURE 4/4
600000000000000000000000000000000000000800000000,
#BPMCHANGE 127.584053039551
#GOGOEND
100000000000200000100000000000100000200000100000,
#BPMCHANGE 127.295516967773
100000000000200000100000000000100000200000000000,
#BPMCHANGE 131.143966674805
100100100000100000100000100000100000100000100000,
#BPMCHANGE 129.341186523438
200200200000200200200000
#BPMCHANGE 125.871116638184
000000000000
#BPMCHANGE 110.142372131348
000000000000,
#BPMCHANGE 88.6304244995117
300000000000
#BPMCHANGE 89.9775924682617
300000000000
#BPMCHANGE 78.8128128051758
300000000000
#BPMCHANGE 64.8560485839844
300000000000,
#BPMCHANGE 68.6034240722656
600000000000000000000000000000000000000000000000,
000000000800000000000000000000000000000000000000,
#END
COURSE:Normal
LEVEL:5
BALLOON:6,6,6
SCOREINIT:1240
SCOREDIFF:350
#START
700000000000000000000000000800000000000000000000,
#BPMCHANGE 130.53596496582
000000000000000000000000000000000000000000000000,
#BPMCHANGE 131.551681518555
500000000000000000000000000000000000000800000000,
#BPMCHANGE 131.043426513672
000000000000000000000000000000000000000000000000,
#BPMCHANGE 131.041717529297
700000000000000000000000000800000000000000000000,
#BPMCHANGE 130.639129638672
000000000000000000000000000000000000000000000000,
#BPMCHANGE 129.934982299805
500000000000000000000000
#BPMCHANGE 133.629196166992
000000000000000800000000,
#BPMCHANGE 129.33952331543
000000000000000000000000000000000000000000000000,
100000100000000000000000100000000000000000000000,
100000100000000000000000100000000000000000000000,
#BPMCHANGE 129.637405395508
100000000000100000100000100000000000100000000000,
#BPMCHANGE 129.337844848633
500000000000000000000000800000000000000000000000,
#BPMCHANGE 129.044662475586
100000100000000000000000100000000000000000000000,
#BPMCHANGE 129.934982299805
100000100000000000000000100000000000000000000000,
#BPMCHANGE 128.455657958984
100000000000100000100000100000000000100000000000,
#BPMCHANGE 132.375930786133
500000000000000000000000
#BPMCHANGE 128.163436889648
800000000000000000000000,
#BPMCHANGE 129.635726928711
100000000000100000000000100000100000100000000000,
#BPMCHANGE 130.235626220703
100000000000100000000000100000100000100000000000,
#BPMCHANGE 126.15747833252
100000000000000000000000100000000000200000000000,
#BPMCHANGE 128.748107910156
100000000000000000000000100000000000200000000000,
#BPMCHANGE 127.584053039551
100000000000000000000000100000000000200000000000,
#BPMCHANGE 129.337844848633
100000000000000000000000
#BPMCHANGE 129.934982299805
000000000000000000000000,
#BPMCHANGE 127.297134399414
300000000000000000000000300000000000000000000000,
#BPMCHANGE 128.163436889648
300000000000000000000000000000000000000000000000,
#BPMCHANGE 129.042999267578
#GOGOSTART
100000000000100000100000100000000000100000000000,
100000000000100000100000100000000000000000000000,
#BPMCHANGE 127.295516967773
300000000000000000000000300000000000300000000000,
#BPMCHANGE 128.749481201172
700000000000000000000000000000800000000000000000,
#BPMCHANGE 127.008277893066
#GOGOEND
000000000000000000000000000000000000000000000000,
#BPMCHANGE 129.042999267578
000000000000000000000000000000000000000000000000,
#BPMCHANGE 130.355880737305
300000300000000000000000000000000000000000000000,
#BPMCHANGE 128.632171630859
300000000000300000000000000000000000000000000000,
#BPMCHANGE 127.584053039551
100000100000000000000000200000000000000000000000,
#BPMCHANGE 129.337844848633
100000100000000000000000200000000000000000000000,
#BPMCHANGE 128.455657958984
100000000000100000100000100000000000200000000000,
#BPMCHANGE 128.749481201172
500000000000000000000000800000000000000000000000,
#BPMCHANGE 128.455657958984
100000100000000000000000200000000000000000000000,
#BPMCHANGE 128.163436889648
100000100000000000000000200000000000000000000000,
#BPMCHANGE 128.748107910156
100000000000100000100000100000000000200000000000,
#BPMCHANGE 132.375930786133
500000000000000000000000
#BPMCHANGE 125.8740234375
800000000000000000000000,
#BPMCHANGE 127.009895324707
100000000000200000000000
#BPMCHANGE 131.756195068359
100000100000100000000000,
#BPMCHANGE 131.14567565918
100000000000200000000000
#BPMCHANGE 127.582427978516
100000100000100000000000,
#BPMCHANGE 127.066375732422
100000000000000000000000100000000000200000000000,
#BPMCHANGE 125.53955078125
100000000000000000000000100000000000200000000000,
#BPMCHANGE 127.872268676758
100000000000000000000000100000000000200000000000,
#BPMCHANGE 128.455657958984
100000000000000000000000000000000000000000000000,
#BPMCHANGE 128.163436889648
300000000000000000000000300000000000000000000000,
#BPMCHANGE 126.439544677734
300000000000000000000000000000000000000000000000,
#BPMCHANGE 126.723937988281
#GOGOSTART
100000000000100000100000100000000000100000000000,
#BPMCHANGE 129.337844848633
100000000000100000100000
#BPMCHANGE 131.14567565918
100000000000000000000000,
#BPMCHANGE 125.313545227051
#MEASURE 2/4
300000000000000000000000,
#BPMCHANGE 127.009895324707
300000000000300000000000,
#BPMCHANGE 127.008277893066
#MEASURE 4/4
600000000000000000000000000000000000800000000000,
#BPMCHANGE 127.584053039551
#GOGOEND
000000000000000000000000000000000000000000000000,
#BPMCHANGE 127.295516967773
000000000000000000000000000000000000000000000000,
#BPMCHANGE 131.143966674805
300000300000000000000000000000000000000000000000,
#BPMCHANGE 129.341186523438
300000000000300000000000
#BPMCHANGE 125.871116638184
000000000000
#BPMCHANGE 110.142372131348
000000000000,
#BPMCHANGE 88.6304244995117
300000000000
#BPMCHANGE 89.9775924682617
300000000000
#BPMCHANGE 78.8128128051758
300000000000
#BPMCHANGE 64.8560485839844
300000000000,
#BPMCHANGE 68.6034240722656
600000000000000000000000000000000000000000000000,
000000000800000000000000000000000000000000000000,
#END
COURSE:Easy
LEVEL:3
BALLOON:6,6,6
SCOREINIT:940
SCOREDIFF:290
#START
700000000000000000000000000800000000000000000000,
#BPMCHANGE 130.53596496582
000000000000000000000000000000000000000000000000,
#BPMCHANGE 131.551681518555
500000000000000000000000000000000000000800000000,
#BPMCHANGE 131.043426513672
000000000000000000000000000000000000000000000000,
#BPMCHANGE 131.041717529297
700000000000000000000000000800000000000000000000,
#BPMCHANGE 130.639129638672
000000000000000000000000000000000000000000000000,
#BPMCHANGE 129.934982299805
500000000000000000000000
#BPMCHANGE 133.629196166992
000000000000000800000000,
#BPMCHANGE 129.33952331543
000000000000000000000000000000000000000000000000,
100000000000000000000000100000000000000000000000,
100000000000000000000000100000000000000000000000,
#BPMCHANGE 129.637405395508
100000000000100000000000100000000000000000000000,
#BPMCHANGE 129.337844848633
500000000000000000000000800000000000000000000000,
#BPMCHANGE 129.044662475586
100000000000000000000000100000000000000000000000,
#BPMCHANGE 129.934982299805
100000000000000000000000100000000000000000000000,
#BPMCHANGE 128.455657958984
100000000000100000000000100000000000000000000000,
#BPMCHANGE 132.375930786133
500000000000000000000000
#BPMCHANGE 128.163436889648
800000000000000000000000,
#BPMCHANGE 129.635726928711
100000000000100000000000100000000000000000000000,
#BPMCHANGE 130.235626220703
100000000000100000000000100000000000000000000000,
#BPMCHANGE 126.15747833252
100000000000000000000000100000000000000000000000,
#BPMCHANGE 128.748107910156
100000000000000000000000100000000000000000000000,
#BPMCHANGE 127.584053039551
100000000000000000000000100000000000100000000000,
#BPMCHANGE 129.337844848633
100000000000000000000000
#BPMCHANGE 129.934982299805
000000000000000000000000,
#BPMCHANGE 127.297134399414
300000000000000000000000300000000000000000000000,
#BPMCHANGE 128.163436889648
300000000000000000000000000000000000000000000000,
#BPMCHANGE 129.042999267578
#GOGOSTART
100000000000100000000000100000000000000000000000,
100000000000100000000000100000000000000000000000,
#BPMCHANGE 127.295516967773
300000000000000000000000300000000000300000000000,
#BPMCHANGE 128.749481201172
700000000000000000000000000000800000000000000000,
#BPMCHANGE 127.008277893066
#GOGOEND
000000000000000000000000000000000000000000000000,
#BPMCHANGE 129.042999267578
000000000000000000000000000000000000000000000000,
#BPMCHANGE 130.355880737305
300000000000000000000000000000000000000000000000,
#BPMCHANGE 128.632171630859
300000000000300000000000000000000000000000000000,
#BPMCHANGE 127.584053039551
100000000000000000000000200000000000000000000000,
#BPMCHANGE 129.337844848633
100000000000000000000000200000000000000000000000,
#BPMCHANGE 128.455657958984
100000000000100000000000100000000000000000000000,
#BPMCHANGE 128.749481201172
500000000000000000000000800000000000000000000000,
#BPMCHANGE 128.455657958984
100000000000000000000000200000000000000000000000,
#BPMCHANGE 128.163436889648
100000000000000000000000200000000000000000000000,
#BPMCHANGE 128.748107910156
200000000000200000000000200000000000000000000000,
#BPMCHANGE 132.375930786133
500000000000000000000000
#BPMCHANGE 125.8740234375
800000000000000000000000,
#BPMCHANGE 127.009895324707
100000000000200000000000
#BPMCHANGE 131.756195068359
100000000000000000000000,
#BPMCHANGE 131.14567565918
100000000000200000000000
#BPMCHANGE 127.582427978516
100000000000000000000000,
#BPMCHANGE 127.066375732422
100000000000000000000000200000000000000000000000,
#BPMCHANGE 125.53955078125
100000000000000000000000200000000000100000000000,
#BPMCHANGE 127.872268676758
100000000000000000000000200000000000100000000000,
#BPMCHANGE 128.455657958984
100000000000000000000000000000000000000000000000,
#BPMCHANGE 128.163436889648
300000000000000000000000300000000000000000000000,
#BPMCHANGE 126.439544677734
300000000000000000000000000000000000000000000000,
#BPMCHANGE 126.723937988281
#GOGOSTART
100000000000100000000000100000000000000000000000,
#BPMCHANGE 129.337844848633
100000000000100000000000
#BPMCHANGE 131.14567565918
100000000000000000000000,
#BPMCHANGE 125.313545227051
#MEASURE 2/4
300000000000000000000000,
#BPMCHANGE 127.009895324707
300000000000300000000000,
#BPMCHANGE 127.008277893066
#MEASURE 4/4
600000000000000000000000000000000000800000000000,
#BPMCHANGE 127.584053039551
#GOGOEND
000000000000000000000000000000000000000000000000,
#BPMCHANGE 127.295516967773
000000000000000000000000000000000000000000000000,
#BPMCHANGE 131.143966674805
300000000000000000000000000000000000000000000000,
#BPMCHANGE 129.341186523438
300000000000300000000000
#BPMCHANGE 125.871116638184
000000000000
#BPMCHANGE 110.142372131348
000000000000,
#BPMCHANGE 88.6304244995117
300000000000
#BPMCHANGE 89.9775924682617
300000000000
#BPMCHANGE 78.8128128051758
300000000000
#BPMCHANGE 64.8560485839844
300000000000,
#BPMCHANGE 68.6034240722656
600000000000000000000000000000000000000000000000,
000000000800000000000000000000000000000000000000,
#END