forked from ESE/ESE
361 lines
15 KiB
Plaintext
361 lines
15 KiB
Plaintext
//TJADB Project
|
|
TITLE:Rewrite
|
|
TITLEJA:リライト
|
|
SUBTITLE:--ASIAN KUNG-FU GENERATION/Fullmetal Alchemist
|
|
BPM:179
|
|
WAVE:Rewrite.ogg
|
|
OFFSET:-2.004
|
|
DEMOSTART:60.660
|
|
|
|
COURSE:Oni
|
|
LEVEL:5
|
|
SCOREINIT:740
|
|
SCOREDIFF:180
|
|
|
|
|
|
#START
|
|
|
|
|
|
100000100000000000100000100000000000100000200000,
|
|
000000200000100000000000200000000000000000000000,
|
|
100000100000000000100000100000000000100000200000,
|
|
000000200000100000000000200000000000000000000000,
|
|
100000000000100000100000200000000000000000100000,
|
|
000000200000200000000000100000000000000000000000,
|
|
100000000000100000100000200000000000100000100000,
|
|
000000100000200000000000100000000000000000000000,
|
|
100000000000200000000000100000100000200000000000,
|
|
100000000000200000100000000000100000200000000000,
|
|
100000000000100000200000000000200000100000000000,
|
|
100000000000000000000000000000000000000000000000,
|
|
100000000000200000000000100000100000200000000000,
|
|
100000000000200000100000000000100000200000000000,
|
|
100000000000100000200000000000200000100000000000,
|
|
100000000000100000000000100000000000000000000000,
|
|
100000000000200000000000100000100000200000000000,
|
|
100000000000200000100000000000100000200000000000,
|
|
100000000000100000200000000000100000200000000000,
|
|
100000000000000000000000000000000000000000000000,
|
|
100000000000200000000000100000100000200000000000,
|
|
100000000000200000100000000000100000200000000000,
|
|
100000000000100000200000000000200000100000000000,
|
|
200000000000200000000000200200200000200200200000,
|
|
200000200000100000000000200000200000100000200000,
|
|
000000200000100000000000100000000000000000000000,
|
|
200000200000100000000000200000200000100000200000,
|
|
000000200000100000000000100000000000000000000000,
|
|
100000000000100000200000100000100000200000000000,
|
|
100000000000200000100000000000100000200000000000,
|
|
100000100000200000200000100000100000200000000000,
|
|
100000000000000000000000000000000000000000000000,
|
|
100000000000200000100000100000100000200000000000,
|
|
100000000000200000100000000000100000200000000000,
|
|
100000100000200000200000100000100000200000000000,
|
|
100000000000100000000000100000000000000000000000,
|
|
100000000000200000100000100000100000200000000000,
|
|
100000000000200000100000000000100000200000000000,
|
|
100000100000200000200000100000100000200000000000,
|
|
100000000000000000000000000000000000000000000000,
|
|
100000000000200000100000100000100000200000000000,
|
|
100000000000200000100000000000100000200000000000,
|
|
100000100000200000200000100000100000200000000000,
|
|
100100100100100100100100100000000000300000000000,
|
|
|
|
#GOGOSTART
|
|
500000000000000000000000000000000000000000000008,
|
|
000000000000000000100000200000000000100000000000,
|
|
100000100000200000200000100000100000200000200000,
|
|
100000000000000000100000200000000000100000000000,
|
|
100100100000200000200000100100100000200000200000,
|
|
100000000000000000100000200000000000100000000000,
|
|
300000000000200000200000100100100000300000000000,
|
|
100000000000000000000000100000100000200000000000,
|
|
100000100000200000200000100000100000200000200000,
|
|
100000000000000000100000100000000000200000000000,
|
|
100000100000200000200000100000200000100000100000,
|
|
100000000000000000100000200000000000100000000000,
|
|
300000100000200000200000100000100000200000200000,
|
|
100000000000000000100000200000000000100000000000,
|
|
100000100100200000000000100000100100200000000000,
|
|
100100100000300000000000100100100000300000000000,
|
|
400000000000000000000000000000000000000000000000,
|
|
|
|
#GOGOEND
|
|
000000000000000000000000000000100000200000000000,
|
|
100000000000200000100000100000100000200000000000,
|
|
000000000000000000000000000000100000200000000000,
|
|
100000100000200000100000000000100000200000000000,
|
|
000000000000100100100000200200200000200200100000,
|
|
100000200000000000100000200000000000100000200000,
|
|
000000000000200000200000100000100000200000000000,
|
|
100000200000000000200000100000000000100000200000,
|
|
000000000000100000200000100000200000100000200000,
|
|
100000200000000000200000100000000000300000400000,
|
|
|
|
|
|
#END
|
|
|
|
|
|
COURSE:Hard
|
|
LEVEL:3
|
|
SCOREINIT:710
|
|
SCOREDIFF:180
|
|
|
|
|
|
#START
|
|
|
|
|
|
100000000000000000100000000000000000100000100000,
|
|
000000100000100000000000100000000000000000000000,
|
|
100000000000000000100000000000000000100000100000,
|
|
000000100000100000000000100000000000000000000000,
|
|
100000000000100000100000100000000000000000200000,
|
|
000000200000200000000000200000000000000000000000,
|
|
100000000000100000100000100000000000200000200000,
|
|
000000200000200000000000200000000000000000000000,
|
|
100000000000100000000000100000100000100000000000,
|
|
100000000000100000000000100000100000200000000000,
|
|
100000000000100000000000100000100000100000000000,
|
|
100000000000000000000000000000000000000000000000,
|
|
100000000000100000000000100000100000100000000000,
|
|
100000000000100000000000100000100000200000000000,
|
|
100000000000100000000000100000100000100000000000,
|
|
100000000000000000000000000000000000000000000000,
|
|
100000000000200000000000100000100000100000000000,
|
|
100000000000200000000000100000100000200000000000,
|
|
100000000000200000000000100000100000100000000000,
|
|
100000000000000000000000000000000000000000000000,
|
|
100000000000200000000000100000100000100000000000,
|
|
100000000000200000000000100000100000200000000000,
|
|
100000000000200000000000100000100000100000000000,
|
|
200000000000200000000000200000000000000000000000,
|
|
200000000000200000200000200000000000000000200000,
|
|
000000200000200000000000200000000000000000000000,
|
|
200000000000200000200000200000000000200000200000,
|
|
000000200000200000000000200000000000000000000000,
|
|
100000000000100000100000000000100000100000000000,
|
|
100000000000100000100000000000100000200000000000,
|
|
100000000000100000100000000000100000100000000000,
|
|
100000000000000000000000000000000000000000000000,
|
|
100000000000100000100000000000100000100000000000,
|
|
100000000000100000100000000000100000200000000000,
|
|
100000000000100000100000000000100000100000000000,
|
|
100000000000100000000000100000000000000000000000,
|
|
100000000000200000100000000000100000100000000000,
|
|
100000000000200000100000000000100000200000000000,
|
|
100000000000200000100000000000100000100000000000,
|
|
100000000000000000000000000000000000000000000000,
|
|
100000000000200000100000000000100000100000000000,
|
|
100000000000200000100000000000100000200000000000,
|
|
100000000000200000100000000000100000100000000000,
|
|
200000000000200000000000200000000000300000000000,
|
|
#GOGOSTART
|
|
500000000000000000000000000000000000000000800000,
|
|
000000000000000000100000100000000000100000000000,
|
|
500000000000000000000000000000000000000000800000,
|
|
000000000000000000100000100000000000200000000000,
|
|
100000000000200000000000100000100000100000000000,
|
|
000000000000000000000000100000000000200000000000,
|
|
100000000000200000000000100000100000100000000000,
|
|
100000000000000000100000100000000000200000000000,
|
|
100000100000100000000000100000100000100000000000,
|
|
000000000000000000100000100000000000200000000000,
|
|
100000100000100000000000100000100000100000000000,
|
|
000000000000000000000000100000000000100000000000,
|
|
100000100000100000000000100000100000100000000000,
|
|
000000000000000000000000100000000000100000000000,
|
|
100000100000100000000000100000100000100000000000,
|
|
100000100000200000000000100000100000200000000000,
|
|
300000000000000000000000000000000000000000000000,
|
|
#GOGOEND
|
|
000000000000000000000000000000100000200000000000,
|
|
100000000000200000000000100000100000100000000000,
|
|
000000000000000000000000000000100000200000000000,
|
|
100000000000200000000000100000100000100000000000,
|
|
000000000000100000000000100000000000200000000000,
|
|
200000200000000000200000200000000000500000000000,
|
|
000000000000000000000000000000800000000000000000,
|
|
200000200000000000200000200000000000200000200000,
|
|
000000000000000000000000000000000000000000000000,
|
|
100000200000000000100000200000000000300000400000,
|
|
|
|
|
|
#END
|
|
|
|
|
|
COURSE:Normal
|
|
LEVEL:4
|
|
BALLOON:10,10
|
|
SCOREINIT:900
|
|
SCOREDIFF:240
|
|
|
|
|
|
#START
|
|
|
|
|
|
100000000000000000000000100000000000000000100000,
|
|
000000000000100000000000100000000000000000000000,
|
|
100000000000000000000000100000000000000000100000,
|
|
000000000000100000000000100000000000000000000000,
|
|
100000000000000000000000100000000000000000100000,
|
|
000000000000100000000000100000000000000000000000,
|
|
100000000000000000000000100000000000000000100000,
|
|
000000000000100000000000100000000000000000000000,
|
|
100000000000000000100000000000000000000000000000,
|
|
100000000000000000100000000000000000100000000000,
|
|
100000000000000000100000000000000000100000000000,
|
|
100000000000000000000000000000000000000000000000,
|
|
100000000000000000100000000000000000000000000000,
|
|
100000000000000000100000000000000000100000000000,
|
|
100000000000000000100000000000000000100000000000,
|
|
200000000000000000200000000000000000000000000000,
|
|
100000000000000000100000000000000000000000000000,
|
|
100000000000000000100000000000000000100000000000,
|
|
100000000000000000100000000000000000100000000000,
|
|
100000000000000000000000000000000000000000000000,
|
|
100000000000000000100000000000000000000000000000,
|
|
100000000000000000100000000000000000100000000000,
|
|
100000000000000000100000000000000000100000000000,
|
|
200000000000000000200000000000000000000000000000,
|
|
200000000000000000000000200000000000000000200000,
|
|
000000200000200000000000200000000000000000000000,
|
|
200000000000000000000000200000000000000000200000,
|
|
000000200000200000000000200000000000000000000000,
|
|
100000000000000000100000000000000000100000000000,
|
|
100000000000000000100000000000000000100000000000,
|
|
100000000000000000100000000000000000100000000000,
|
|
100000000000000000000000000000000000000000000000,
|
|
100000000000000000100000000000000000100000000000,
|
|
100000000000000000100000000000000000100000000000,
|
|
100000000000000000100000000000000000100000000000,
|
|
200000000000000000200000000000000000000000000000,
|
|
100000000000000000200000000000000000000000000000,
|
|
100000000000000000200000000000000000100000000000,
|
|
100000000000000000100000000000000000100000000000,
|
|
100000000000000000000000000000000000000000000000,
|
|
100000000000000000200000000000000000000000000000,
|
|
100000000000000000200000000000000000100000000000,
|
|
100000000000000000000000100000000000100000000000,
|
|
300000000000400000000000400000000000000000000000,
|
|
#GOGOSTART
|
|
700000000000000000000000000000000000000000800000,
|
|
000000000000000000100000100000000000100000000000,
|
|
700000000000000000000000000000000000000000800000,
|
|
000000000000000000100000100000000000100000000000,
|
|
100000000000100000000000100000000000100000000000,
|
|
000000000000000000100000100000000000100000000000,
|
|
100000000000200000000000100000000000200000000000,
|
|
100000000000000000000000100000000000200000000000,
|
|
100000000000100000000000100000000000100000000000,
|
|
000000000000000000100000100000000000200000000000,
|
|
100000000000100000000000100000000000100000000000,
|
|
000000000000000000100000100000000000200000000000,
|
|
100000000000100000000000100000000000100000000000,
|
|
000000000000000000100000100000000000200000000000,
|
|
100000000000200000000000100000000000200000000000,
|
|
300000000000100000000000300000000000100000000000,
|
|
300000000000000000000000000000000000000000000000,
|
|
#GOGOEND
|
|
000000000000000000000000000000000000000000000000,
|
|
100000000000100000100000000000100000100000000000,
|
|
000000000000000000000000000000000000000000000000,
|
|
200000000000200000200000000000200000200000000000,
|
|
000000000000100000000000100000000000200000000000,
|
|
200000000000000000200000000000000000500000000000,
|
|
000000000000000000000000000000800000000000000000,
|
|
100000000000000000100000000000000000100000000000,
|
|
000000000000000000000000000000000000000000000000,
|
|
200000000000000000200000000000000000400000000000,
|
|
|
|
|
|
#END
|
|
|
|
|
|
COURSE:Easy
|
|
LEVEL:4
|
|
BALLOON:7,7
|
|
SCOREINIT:770
|
|
SCOREDIFF:210
|
|
|
|
|
|
#START
|
|
|
|
|
|
100000000000000000000000100000000000000000000000,
|
|
100000000000100000000000100000000000000000000000,
|
|
100000000000000000000000100000000000000000000000,
|
|
100000000000100000000000100000000000000000000000,
|
|
100000000000000000000000100000000000000000000000,
|
|
100000000000100000000000100000000000000000000000,
|
|
100000000000000000000000100000000000000000000000,
|
|
100000000000100000000000100000000000000000000000,
|
|
100000000000000000100000000000000000000000000000,
|
|
100000000000000000100000000000000000000000000000,
|
|
100000000000000000100000000000000000000000000000,
|
|
200000000000000000000000000000000000000000000000,
|
|
100000000000000000100000000000000000000000000000,
|
|
100000000000000000100000000000000000000000000000,
|
|
100000000000000000100000000000000000500000000000,
|
|
000000000000800000000000000000000000000000000000,
|
|
100000000000000000100000000000000000000000000000,
|
|
100000000000000000100000000000000000000000000000,
|
|
100000000000000000100000000000000000000000000000,
|
|
100000000000000000000000000000000000000000000000,
|
|
100000000000000000100000000000000000000000000000,
|
|
100000000000000000100000000000000000000000000000,
|
|
100000000000000000100000000000000000000000000000,
|
|
200000000000200000000000200000000000000000000000,
|
|
100000000000000000000000100000000000000000000000,
|
|
100000000000100000000000100000000000000000000000,
|
|
200000000000000000000000200000000000000000000000,
|
|
200000000000200000000000200000000000000000000000,
|
|
100000000000000000100000000000000000100000000000,
|
|
100000000000000000100000000000000000000000000000,
|
|
100000000000000000100000000000000000100000000000,
|
|
100000000000000000000000000000000000000000000000,
|
|
100000000000000000100000000000000000000000000000,
|
|
100000000000000000100000000000000000000000000000,
|
|
100000000000000000100000000000000000500000000000,
|
|
000000000000800000000000000000000000000000000000,
|
|
100000000000000000100000000000000000100000000000,
|
|
100000000000000000100000000000000000000000000000,
|
|
100000000000000000100000000000000000100000000000,
|
|
100000000000000000000000000000000000000000000000,
|
|
100000000000000000100000000000000000100000000000,
|
|
100000000000000000100000000000000000000000000000,
|
|
100000000000000000100000000000000000100000000000,
|
|
300000000000300000000000300000000000000000000000,
|
|
#GOGOSTART
|
|
500000000000000000000000000000800000000000000000,
|
|
000000000000000000000000100000000000100000000000,
|
|
500000000000000000000000000000800000000000000000,
|
|
000000000000000000000000100000000000000000000000,
|
|
100000000000100000000000100000000000100000000000,
|
|
000000000000000000000000200000000000000000000000,
|
|
200000000000200000000000200000000000200000000000,
|
|
200000000000000000000000100000000000000000000000,
|
|
700000000000000000000000000000800000000000000000,
|
|
000000000000000000000000100000000000000000000000,
|
|
700000000000000000000000000000800000000000000000,
|
|
000000000000000000000000100000000000000000000000,
|
|
200000000000200000000000200000000000200000000000,
|
|
000000000000000000000000100000000000000000000000,
|
|
100000000000100000000000100000000000100000000000,
|
|
300000000000000000000000300000000000000000000000,
|
|
300000000000000000000000000000000000000000000000,
|
|
#GOGOEND
|
|
000000000000000000000000000000000000000000000000,
|
|
100000000000100000000000100000000000100000000000,
|
|
000000000000000000000000000000000000000000000000,
|
|
200000000000200000000000200000000000200000000000,
|
|
000000000000100000000000100000000000000000000000,
|
|
100000000000000000100000000000000000500000000000,
|
|
000000000000000000000000000000800000000000000000,
|
|
100000000000000000100000000000000000100000000000,
|
|
000000000000000000000000000000000000000000000000,
|
|
200000000000000000200000000000000000400000000000,
|
|
|
|
|
|
#END
|
|
|