Files
2023-06-15 19:15:39 -05:00

180 lines
2.1 KiB
Plaintext

//TJADB Project
TITLE:S・M・I・L・E
TITLEJA:ス・マ・イ・ル
SUBTITLE:--Moka Kamishiraishi/Hanakappa
SUBTITLEJA:「はなかっぱ」より
BPM:166
WAVE:S・M・I・L・E.ogg
OFFSET:-1.693
DEMOSTART:1.693
COURSE:Oni
LEVEL:5
SCOREINIT:1560
SCOREDIFF:490
#START
#GOGOSTART
30303034,
03443020,//2
#GOGOEND
11210212,
02110212,
1011100020222000,
11221210,
11210212,
02110212,
1011102010222020,
1010202000222020,
10011020,
0010001010222020,
10011020,
0010001010222020,
10101122,
12121210,
500000000000000000000000000008000000000000000000,
3332,//18
#GOGOSTART
12121121,
02202012,
1011102010221020,
1011102010221020,
12121121,
0020200020001011,
1,
0011203040000000,//26
#GOGOEND
#END
COURSE:Hard
LEVEL:5
SCOREINIT:2060
SCOREDIFF:630
#START
#GOGOSTART
30303044,
03333000,//2
#GOGOEND
10110201,
01010222,
1122,
12120000,
10110201,
01010222,
1122,
12210000,
1112,
10011222,
1112,
10011220,
1111,
12121210,
500000000000000000000000000008000000000000000000,
3332,//18
#GOGOSTART
12121021,
01202012,
10210102,
500000000000000000000000000008000000000000000000,
12121021,
01202012,
1,
03443000,//26
#GOGOEND
,
#END
COURSE:Normal
LEVEL:3
BALLOON:7
#START
#GOGOSTART
7008,
03333000,//2
#GOGOEND
11,
1110,
11,
10110000,
22,
2220,
22,
22020000,
12,
10011000,
12,
10011000,
11,
1111,
600000000000000000000000000008000000000000000000,
3330,//18
#GOGOSTART
10101011,
01101000,
10110100,
500000000000000000000000000008000000000000000000,
10101011,
01101000,
3,
03333000,//26
#GOGOEND
,
#END
COURSE:Easy
LEVEL:2
BALLOON:6
#START
#GOGOSTART
9009,
8,//2
#GOGOEND
1,
1,
11,
500000000000000000000000000008000000000000000000,
1,
1,
11,
500000000000000000000000000008000000000000000000,
1,
1,
1,
1,
11,
11,
600000000000000000000000000008000000000000000000,
3330,//18
#GOGOSTART
11,
1110,
1,
500000000000000000000000000008000000000000000000,
11,
1110,
1,
000000500000000000000008000000000000000000000000,//26
#GOGOEND
,
#END