Files
2023-06-15 19:15:39 -05:00

276 lines
11 KiB
Plaintext

//TJADB Project
TITLE:SHINING LINE*
TITLEJA:SHINING LINE*
SUBTITLE:--Kakeru Ishihama feat. STAR☆ANIS/Aikatsu!
SUBTITLEJA:「アイカツ!」より
BPM:150
WAVE:SHINING LINE.ogg
OFFSET:-8.508
DEMOSTART:63.491
COURSE:Oni
LEVEL:6
SCOREINIT:760
SCOREDIFF:200
#START
000000100000100000100000500000000000000008000000,
000000100000200000200000100000100100200000200000,
000000100000200000200000100100100000200000200000,
000000100000200000200000100000100100200000200000,
000000100000200000200000100100100000200000200000,
000000100000200000200000100000200200200000200000,
000000100000200000200000100100100000200000200000,
000000100000200000200000100000100100200000200000,
000000100000200000200000400000400000000000000000,
100000000000100000000000100000200000100000100000,
100000000000100000000000100000200000100100100000,
100000200000100000200000100000200000000000200000,
000000200000100000000000100000200000200000200000,
100000000000100000000000100000200000100000100000,
100000000000100000000000100000200000100100100000,
100000200000100000200000100000200100100000200000,
000000200000000000200000000000200200200000000000,
100000000000100000000000100000200000100100100000,
100000000000100000000000100000200000100100100000,
100000200000100000200000100000100100100000200000,
000000200200200000000000000000200000200000200000,
100000000000100000000000100000200000100100100000,
100000000000100000000000100000200000100100100000,
100000200000100000200000100000200100100000200000,
000000200000000000200000000000100100100000000000,
300000300000000000000000000000200200200000000000,
300000300000000000000000000000100000200000000000,
300000300000000000000000000000000000100000000000,
300000300000000000000000200000100100100100100000,
300000000000100000200000100000200000100000200000,
100000200000100000200000100000200000000000100100,
100000200000200000100100100000200000200000100100,
100000200000200000100100100000000000600000000000,
000000000000000000000000000000000008000000000000,
400000000000000000100000200000100000200000100000,
#GOGOSTART
100000100100100000200000100000100100200000100000,
100000200000000000200000100000200000100000200000,
100000100100100000200000100000100100200000200000,
100000200000000000100000200000100000200000100000,
100000100100100000200000100000100100200000100000,
100000200000000000200000100000200000100000200000,
100000100100100000200000100000100100200000500000,
000000000000000000000000000008000000000000100000,
100000200200200000100000100000200200200000100000,
100000200000000000100000100000200000200000100100,
100000000000100000100100100000200200200000100100,
100000200000200000000000000000100000200000000000,
200000100000100000200000100000100000200000100000,
100000200000100000100000200000100100100100100000,
000000000000300000000000000000000000000000000000,
#GOGOEND
#END
COURSE:Hard
LEVEL:4
SCOREINIT:840
SCOREDIFF:263
#START
000000100000100000100000500000000000000080000000,
000000100000100000100000000000100000100000100000,
000000100000100000100000200000200000200000200000,
000000100000100000100000000000100000100000100000,
000000100000100000100000200000200000200000200000,
000000100000100000100000000000200000200000200000,
000000200000200000200000100000100000100000100000,
000000100000100000100000000000100000100000100000,
000000200000200000200000400000400000000000000000,
100000000000100000000000100000200000100000000000,
100000000000100000000000100000200000100000000000,
100000200000000000200000000000200000000000200000,
000000200000200000000000000000000000000000000000,
100000000000100000000000100000200000100000000000,
100000000000100000000000100000200000100000000000,
100000200000000000200000000000200000000000200000,
000000200000000000200000000000200000200000000000,
100000000000100000000000100000200000100000100000,
100000000000100000000000100000200000100000000000,
100000200000000000200000000000200000000000200000,
000000200000200000000000000000000000000000000000,
100000000000100000000000100000200000100000100000,
100000000000100000000000100000200000100000000000,
100000200000000000200000000000200000000000200000,
000000200000000000200000000000200000200000000000,
300000300000000000000000000000200000200000000000,
300000300000000000000000000000100000200000000000,
300000300000000000000000000000000000100000000000,
300000300000000000000000500000000000000080000000,
300000000000100000100000200000200000000000100000,
200000000000100000200000000000200000000000100000,
200000000000200000200000100000000000200000200000,
100000100000200000200000100000000000600000000000,
000000000000000000000000000000000080000000000000,
400000000000000000100000100000200000200000000000,
#GOGOSTART
100000000000200000100000100000000000200000100000,
100000100000000000100000100000200000200000000000,
100000000000200000100000100000100000000000200000,
200000200000000000100000100000200000200000000000,
100000000000200000100000100000000000200000100000,
100000100000000000100000100000200000200000000000,
100000000000200000100000100000100000200000500000,
000000000000000000000000000080000000000000100000,
100000200000000000100000100000200000000000100000,
100000200000000000100000100000200000200000100000,
200000000000200000100000100000200000200000100000,
000000100000100000000000000000100000200000000000,
200000100000100000200000100000100000200000100000,
100000200000100000100000200000500000000080000000,
000000000000300000000000000000000000000000000000,
#GOGOEND
#END
COURSE:Normal
LEVEL:2
BALLOON:10,6
SCOREINIT:1490
SCOREDIFF:1053
#START
000000000000000000000000000000000000000000000000,
100000000000000000000000100000000000000000000000,
100000000000000000000000000000000000000000000000,
100000000000000000000000100000000000000000000000,
100000000000000000000000000000000000000000000000,
100000000000000000000000100000000000000000000000,
200000000000000000000000000000000000000000000000,
100000000000000000000000100000000000000000000000,
100000000000000000000000000000000000000000000000,
100000000000000000000000000000000000000000000000,
100000000000000000000000000000000000000000000000,
100000000000000000000000100000000000000000000000,
100000000000000000000000100000000000000000000000,
100000000000000000000000000000000000000000000000,
100000000000000000000000000000000000000000000000,
100000000000000000000000100000000000000000500000,
000000000000000000000000000000800000000000000000,
100000000000000000000000000000000000000000000000,
100000000000000000000000100000000000000000000000,
100000000000000000000000100000000000100000000000,
100000000000000000000000000000000000000000000000,
100000000000000000000000100000000000000000000000,
100000000000000000000000100000000000100000000000,
700000000000000000000000000000000000000000000000,
000000000000000000000000800000000000000000000000,
300000300000000000000000000000000000200000000000,
300000300000000000000000000000000000100000000000,
300000300000000000000000000000000000100000000000,
300000300000000000000000500000800000000000000000,
100000000000100000000000100000000000000000000000,
100000000000100000000000100000000000000000000000,
100000000000100000000000100000000000100000000000,
100000000000100000000000100000000000900000000000,
600000000000000000000000000000000000000000000000,
800000000000000000000000000000000000000000000000,
#GOGOSTART
100000000000100000000000200000000000000000000000,
200000000000000000000000100000000000000000000000,
100000000000100000000000200000000000000000000000,
200000000000000000000000100000000000000000000000,
100000000000100000000000200000000000000000000000,
200000000000000000000000100000000000000000000000,
100000000000100000000000200000000000500000000000,
000000000000000000000000800000000000000000000000,
100000000000100000000000100000000000000000000000,
100000000000100000000000100000000000000000000000,
100000000000100000000000100000000000000000600000,
000000000000000000000000000000000000000000000000,
000000000000000000000000000000000000000000000000,
000000000000000000000000000000800000000000000000,
000000000000300000000000000000000000000000000000,
#GOGOEND
#END
COURSE:Easy
LEVEL:2
BALLOON:6,5
SCOREINIT:1360
SCOREDIFF:1085
#START
000000000000000000000000000000000000000000000000,
100000000000000000000000100000000000000000000000,
100000000000000000000000000000000000000000000000,
100000000000000000000000100000000000000000000000,
100000000000000000000000000000000000000000000000,
100000000000000000000000100000000000000000000000,
200000000000000000000000000000000000000000000000,
100000000000000000000000100000000000000000000000,
100000000000000000000000000000000000000000000000,
100000000000000000000000000000000000000000000000,
100000000000000000000000000000000000000000000000,
100000000000000000000000100000000000000000000000,
100000000000000000000000000000000000000000000000,
100000000000000000000000000000000000000000000000,
100000000000000000000000000000000000000000000000,
100000000000000000000000100000000000000000500000,
000000000000000000000000800000000000000000000000,
100000000000000000000000100000000000000000000000,
100000000000000000000000000000000000000000000000,
100000000000000000000000100000000000000000000000,
100000000000000000000000000000000000000000000000,
100000000000000000000000100000000000000000000000,
100000000000000000000000000000000000000000000000,
700000000000000000000000000000000000000000000000,
000000000000000000000000800000000000000000000000,
300000000000000000000000000000000000000000000000,
300000000000000000000000000000000000000000000000,
300000000000000000000000000000000000000000000000,
300000000000000000000000000000000000000000000000,
100000000000000000000000100000000000000000000000,
100000000000000000000000100000000000000000000000,
100000000000100000000000100000000000000000000000,
100000000000100000000000100000000000900000000000,
500000000000000000000000000000000000000000000000,
800000000000000000000000000000000000000000000000,
#GOGOSTART
100000000000100000000000100000000000000000000000,
100000000000000000000000100000000000000000000000,
100000000000100000000000100000000000000000000000,
100000000000000000000000000000000000000000000000,
100000000000100000000000100000000000000000000000,
100000000000000000000000100000000000000000000000,
100000000000100000000000100000000000000000500000,
000000000000000000000000800000000000000000000000,
100000000000000000000000100000000000000000000000,
100000000000000000000000100000000000000000000000,
100000000000000000000000100000000000000000600000,
000000000000000000000000000000000000000000000000,
000000000000000000000000000000000000000000000000,
000000000000000000000000000000000000000800000000,
000000000000300000000000000000000000000000000000,
#GOGOEND
#END