Files
2023-01-17 00:45:18 -05:00

294 lines
3.5 KiB
Plaintext
Raw Permalink Blame History

This file contains ambiguous Unicode characters
This file contains Unicode characters that might be confused with other characters. If you think that this is intentional, you can safely ignore this warning. Use the Escape button to reveal them.
//TJADB Project
TITLE:SURPRISE-DRIVE
TITLEJA:SURPRISE‐DRIVE
SUBTITLE:--Mitsuru Matsuoka EARNEST DRIVE/Kamen Rider Drive
SUBTITLEJA:「仮面ライダードライブ」より
BPM:180
WAVE:SURPRISE-DRIVE.ogg
OFFSET:-2.847
DEMOSTART:42.045
COURSE:Oni
LEVEL:7
BALLOON:6
SCOREINIT:830
SCOREDIFF:240
#START
1000201110200020,
1000201110002000,
1000201110200020,
1000201120002000,
10210210,
21012020,
1022201022201022,
2010221040000000,
10101202,
10101202,
10101212,
10101202,
10101012,
10101212,
1000111010200020,
0011102210000000,
1000201110200020,
1000201110200020,
1000201110201020,
1000201110200020,
10201120,
10201122,
10211202,
0020111020002000,
30404303,
03304001,
0020100011102010,
10120201,
0020111010102070,
0000008030030030,
#GOGOSTART
0020112010102010,
0020112011102010,
0020112010102010,
0020112011102010,
0020112010102010,
0020112011102010,
0020111010202010,
40033403,
0020112010102010,
0020112011102010,
0020112010102010,
0020112011102000,
1000201020112010,
2000201020112020,
1010111011111110,
#GOGOEND
30440304,
#GOGOSTART
00101121,
0011201020002000,
1022201022201022,
2010221040003030,
#END
COURSE:Hard
LEVEL:6
BALLOON:5
SCOREINIT:800
SCOREDIFF:238
#START
10212101,
10212020,
10212101,
10212020,
10210210,
21011020,
11211211,
21114000,
10101102,
10101102,
10101102,
10101202,
10101012,
10101212,
10111202,
0000111010000000,
1000201110100010,
1000201110100010,
1000201110100010,
1000201110100020,
10101121,
10101121,
10111202,
0011100020002000,
30404003,
03304001,
0010200010001011,
10120201,
01201117,
0000008030030030,
#GOGOSTART
02101121,
02101121,
02101121,
0020100011102010,
02101121,
0020100011102010,
0020100011102000,
40033303,
02101121,
0020100011102010,
02101121,
0020100011102000,
10212120,
10212121,
20212120,
#GOGOEND
30330304,
#GOGOSTART
00201121,
01202020,
11211211,
21124033,
#END
COURSE:Normal
LEVEL:4
BALLOON:10,7,8,13
SCOREINIT:1520
SCOREDIFF:963
#START
11,
1110,
22,
2220,
10010010,
01004040,
7,
0830,
11,
22,
11,
1110,
12,
1,
10101001,
03,
1110,
2220,
1122,
1110,
1110,
1,
20202005,
000000000008000000000000200000000000200000000000,
00303003,
03303000,
0202,
00220200,
0270,
00008005,
#GOGOSTART
000000000000000000000008000000000000000000100000,
00010005,
000000000000000000000000000000000000000000000008,
00010005,
000000000000000000000008000000000000000000200000,
00020007,
,
80050000,
000000000000000000000008000000000000000000200000,
00020005,
000000000000000000000000000000000000000000000008,
0022,
1110,
2220,
1122,
#GOGOEND
30330303,
#GOGOSTART
,
1122,
7,
00008033,
#END
COURSE:Easy
LEVEL:3
BALLOON:3,5,7,7,10
SCOREINIT:1960
SCOREDIFF:2175
#START
1,
1,
11,
1,
5,
000000000000000000000008000000000000000000000000,
6,
000000000000000000000008000000000000000000000000,
1,
1,
11,
1,
11,
1,
10001007,
08,
11,
1,
11,
1,
12,
1,
10001005,
000000000000000000000000000000000008000000000000,
0330,
0330,
0202,
0202,
0270,
00800005,
#GOGOSTART
000000000000000000000008000000000000000000100000,
00010005,
000000000000000000000000000000000000000000000008,
00001005,
000000000000000000000008000000000000000000100000,
00010007,
0008,
00050000,
000000000000000000000008000000000000000000100000,
00010005,
000000000000000000000000000000000000000000000008,
01,
11,
22,
7,
#GOGOEND
80000003,
#GOGOSTART
,
22,
9,
00000008,
#END