Files
2023-06-15 19:15:39 -05:00

409 lines
13 KiB
Plaintext

//TJADB Project
TITLE:Saraba
TITLEJA:さらば
SUBTITLE:--Kinmokusei/Atashinchi
SUBTITLEJA:あたしンち
BPM:145
WAVE:Saraba.ogg
OFFSET:-2.009
DEMOSTART:36.353
COURSE:Oni
LEVEL:5
STYLE:Double
BALLOON:20,15
SCOREINIT:1010
SCOREDIFF:280
#START P1
000000000000000000000000000000000000100000200000,
100000200000100000000000000000100000100000100000,
000000100000200000000000000000100000200000100000,
200000000000100000200000000000200000100000100000,
200000000000200000100000000000000000100000200000,
100000200000100000000000000000100000100000100000,
000000100000200000000000000000100000200000100000,
200000000000100000200000000000200000100000100000,
200000000000200000100000000000000000200000000000,
11201210,
11200000,
00112012,
12110001,
100100100000100000200200200000000000000000100000,
100100100000100000200200200000000000000000200000,
200200200000200000100100100000000000000000100000,
300000000000000000000000100000200000100000100000,
000000000000200200200000000000000000100000200000,
100000200000000000000000000000100100100000100000,
200000000000000000000000100000200000100000200000,
000000300000300000000000200000200000100000200000,
100000200000100000000000000000100000100000100100,
100000100100100000000000000000100000200000100000,
200200200000100000200000000000200000100000100000,
200000000000200000100000000000000000100000200000,
100000200000100000000000000000100000100000100100,
100000100100100000000000000000100000200000100000,
200200200000100000200000000000200000100000100000,
200000000000200000100000000000000000200000000000,
10220022,
00121217,
,
00008011,
100000000000000000100000100000000000000000100000,
100000000000000000100000100000000000000000200000,
500000000008000000200000500000000008000000100000,
300000000000000000100000200000100000100000700000,
000000000000000000000000000000000000000000000008,
#END
#START P2
000000000000000000000000000000000000100000200000,
100000200000100000000000000000100000100000100000,
000000100000200000000000000000100000200000100000,
200000000000100000200000000000200000100000100000,
200000000000200000100000000000000000100000200000,
100000200000100000000000000000100000100000100000,
000000100000200000000000000000100000200000100000,
200000000000100000200000000000200000100000100000,
200000000000200000100000000000000000200000000000,
10220022,
00121217,
,
00008001,
100100100000100000200200200000000000000000100000,
100100100000100000200200200000000000000000200000,
200200200000200000100100100000000000000000100000,
300000000000000000000000100000200000100000100000,
000000000000200200200000000000000000100000200000,
100000200000000000000000000000100100100000100000,
200000000000000000000000100000200000100000200000,
000000300000300000000000200000200000100000200000,
100000200000100000000000000000100000100000100100,
100000100100100000000000000000100000200000100000,
200200200000100000200000000000200000100000100000,
200000000000200000100000000000000000100000200000,
100000200000100000000000000000100000100000100100,
100000100100100000000000000000100000200000100000,
200200200000100000200000000000200000100000100000,
200000000000200000100000000000000000200000000000,
12101210,
11200000,
00112012,
12110011,
100000000000000000100000100000000000000000100000,
100000000000000000100000100000000000000000200000,
500000000008000000200000500000000008000000100000,
300000000000000000100000200000100000100000700000,
000000000000000000000000000000000000000000000008,
#END
COURSE:Hard
LEVEL:2
BALLOON:12,20,15
SCOREINIT:1560
SCOREDIFF:570
#START P1
000000000000000000000000000000000000100000000000,
100000000000100000000000000000100000000000100000,
000000100000000000000000000000100000000000100000,
100000000000100000100000000000000000100000000000,
100000000000100000000000000000000000100000000000,
100000000000100000000000000000100000000000100000,
000000100000000000000000000000100000000000100000,
100000000000100000100000000000000000100000000000,
100000000000100000000000000000000000200000000000,
10101110,
12000000,
00111010,
11110001,
100000000000000000100000100000000000000000100000,
200000000000000000100000200000000000000000200000,
200000000000000000500000000000000008000000000000,
300000000000000000000000100000100000100000700000,
,
800000000000200000200000000000200000200000000000,
000000000000200000200000000000200000200000000000,
000000000000000000000000000000000000100000000000,
100000000000100000000000000000100000000000200000,
000000200000000000000000000000100000000000100000,
100000000000100000200000000000000000100000000000,
100000000000100000000000000000000000100000000000,
100000000000100000000000000000100000000000200000,
000000200000000000000000000000100000000000100000,
100000000000100000200000000000000000100000000000,
100000000000100000000000000000000000200000000000,
1202,
00101117,
,
00008011,
100000000000000000100000100000000000000000100000,
200000000000000000100000200000000000000000200000,
200000000000000000500000000000000008000000000000,
300000000000000000100000100000100000100000700000,
000000000000000000000000000000000000000000000008,
#END
#START P2
000000000000000000000000000000000000100000000000,
100000000000100000000000000000100000000000100000,
000000100000000000000000000000100000000000100000,
100000000000100000100000000000000000100000000000,
100000000000100000000000000000000000100000000000,
100000000000100000000000000000100000000000100000,
000000100000000000000000000000100000000000100000,
100000000000100000100000000000000000100000000000,
100000000000100000000000000000000000200000000000,
1202,
00101117,
,
00008001,
100000000000000000100000100000000000000000100000,
200000000000000000100000200000000000000000200000,
200000000000000000500000000000000008000000000000,
300000000000000000000000100000100000100000700000,
,
800000000000200000200000000000200000200000000000,
000000000000200000200000000000200000200000000000,
000000000000000000000000000000000000100000000000,
100000000000100000000000000000100000000000200000,
000000200000000000000000000000100000000000100000,
100000000000100000200000000000000000100000000000,
100000000000100000000000000000000000100000000000,
100000000000100000000000000000100000000000200000,
000000200000000000000000000000100000000000100000,
100000000000100000200000000000000000100000000000,
100000000000100000000000000000000000200000000000,
10101110,
12000000,
00111010,
11110011,
100000000000000000100000100000000000000000100000,
200000000000000000100000200000000000000000200000,
200000000000000000500000000000000008000000000000,
300000000000000000100000100000100000100000700000,
000000000000000000000000000000000000000000000008,
#END
COURSE:Normal
LEVEL:2
STYLE:Double
BALLOON:12,15
SCOREINIT:1700
SCOREDIFF:730
#START P1
000000000000000000000000000000000000100000000000,
100000000000100000000000000000100000000000100000,
000000100000000000000000000000100000000000100000,
100000000000000000000000000000000000100000000000,
100000000000100000000000000000000000100000000000,
100000000000100000000000000000100000000000100000,
000000100000000000000000000000100000000000100000,
100000000000000000000000000000000000100000000000,
100000000000100000000000000000000000000000000000,
0111,
11000000,
0111,
10110001,
100000000000000000100000100000000000000000100000,
100000000000000000100000100000000000000000200000,
200000000000000000500000000000000008000000000000,
300000000000000000000000100000000000000000700000,
,
8202,
000000000000200000000000000000000000200000000000,
000000000000000000000000000000000000100000000000,
100000100000100000000000000000100000000000100000,
000000100000100000000000000000100000000000100000,
100000000000000000000000000000000000100000000000,
100000000000100000100000000000000000100000000000,
100000100000100000000000000000100000000000100000,
000000100000100000000000000000100000000000100000,
100000000000000000000000000000000000100000000000,
100000000000100000100000000000000000000000000000,
0202,
0111,
5,
000000000008000000000000000000000000100000100000,
100000000000000000100000100000000000000000100000,
100000000000000000100000100000000000000000200000,
200000000000000000500000000000000008000000000000,
300000000000000000100000100000000000000000700000,
000000000000000000000000000000000000000000000008,
#END
#START P2
000000000000000000000000000000000000100000000000,
100000000000100000000000000000100000000000100000,
000000100000000000000000000000100000000000100000,
100000000000000000000000000000000000100000000000,
100000000000100000000000000000000000100000000000,
100000000000100000000000000000100000000000100000,
000000100000000000000000000000100000000000100000,
100000000000000000000000000000000000100000000000,
100000000000100000000000000000000000000000000000,
0202,
0111,
5,
000000000008000000000000000000000000000000100000,
100000000000000000100000100000000000000000100000,
100000000000000000100000100000000000000000200000,
200000000000000000500000000000000008000000000000,
300000000000000000000000100000000000000000700000,
,
8202,
000000000000200000000000000000000000200000000000,
000000000000000000000000000000000000100000000000,
100000100000100000000000000000100000000000100000,
000000100000100000000000000000100000000000100000,
100000000000000000000000000000000000100000000000,
100000000000100000100000000000000000100000000000,
100000100000100000000000000000100000000000100000,
000000100000100000000000000000100000000000100000,
100000000000000000000000000000000000100000000000,
100000000000100000100000000000000000000000000000,
0111,
11000000,
0111,
10110011,
100000000000000000100000100000000000000000100000,
100000000000000000100000100000000000000000200000,
200000000000000000500000000000000008000000000000,
300000000000000000100000100000000000000000700000,
000000000000000000000000000000000000000000000008,
#END
COURSE:Easy
LEVEL:3
SCOREINIT:1870
SCOREDIFF:1160
#START
000000000000000000000000000000000000100000000000,
100000000000100000000000000000000000100000000000,
000000100000000000000000000000000000100000000000,
100000000000000000000000000000000000100000000000,
100000000000100000000000000000000000100000000000,
100000000000100000000000000000000000100000000000,
000000100000000000000000000000000000100000000000,
100000000000000000000000000000000000100000000000,
100000000000100000000000000000000000000000000000,
0101,
1,
0100,
1100,
100000000000000000000000100000000000000000000000,
100000000000000000000000200000000000000000000000,
200000000000000000000000200000000000000000000000,
300000000000000000000000100000000000000000500000,
000000000000000000000000000000000008000000000000,
000000000000200000000000000000000000200000000000,
000000000000200000000000000000000000200000000000,
000000000000000000000000000000000000100000000000,
100000000000100000000000000000000000200000000000,
000000200000000000000000000000000000100000000000,
100000000000000000000000000000000000100000000000,
100000000000100000000000000000000000100000000000,
100000000000100000000000000000000000200000000000,
000000200000000000000000000000000000100000000000,
100000000000000000000000000000000000100000000000,
100000000000100000000000000000000000000000000000,
0202,
0101,
1,
0001,
100000000000000000000000100000000000000000000000,
100000000000000000000000200000000000000000000000,
200000000000000000000000200000000000000000000000,
300000000000000000000000100000000000000000500000,
000000000000000000000000000000000008000000000000,
#END
#START P2
000000000000000000000000000000000000100000000000,
100000000000100000000000000000000000100000000000,
000000100000000000000000000000000000100000000000,
100000000000000000000000000000000000100000000000,
100000000000100000000000000000000000100000000000,
100000000000100000000000000000000000100000000000,
000000100000000000000000000000000000100000000000,
100000000000000000000000000000000000100000000000,
100000000000100000000000000000000000000000000000,
0202,
0101,
1,
,
100000000000000000000000100000000000000000000000,
100000000000000000000000200000000000000000000000,
200000000000000000000000200000000000000000000000,
300000000000000000000000100000000000000000500000,
000000000000000000000000000000000008000000000000,
000000000000200000000000000000000000200000000000,
000000000000200000000000000000000000200000000000,
000000000000000000000000000000000000100000000000,
100000000000100000000000000000000000200000000000,
000000200000000000000000000000000000100000000000,
100000000000000000000000000000000000100000000000,
100000000000100000000000000000000000100000000000,
100000000000100000000000000000000000200000000000,
000000200000000000000000000000000000100000000000,
100000000000000000000000000000000000100000000000,
100000000000100000000000000000000000000000000000,
0101,
1,
0100,
0111,
100000000000000000000000100000000000000000000000,
100000000000000000000000200000000000000000000000,
200000000000000000000000200000000000000000000000,
300000000000000000000000100000000000000000500000,
000000000000000000000000000000000008000000000000,
#END