forked from ESE/ESE
238 lines
9.1 KiB
Plaintext
238 lines
9.1 KiB
Plaintext
//TJADB Project
|
|
TITLE:Sazae-san
|
|
TITLEJA:サザエさん
|
|
SUBTITLE:--Yuko Uno/Sazae-san
|
|
BPM:121
|
|
WAVE:Sazae-san.ogg
|
|
OFFSET:-3.503
|
|
DEMOSTART:61.023
|
|
|
|
COURSE:Oni
|
|
LEVEL:3
|
|
SCOREINIT:580
|
|
SCOREDIFF:140
|
|
|
|
|
|
#START
|
|
|
|
|
|
100000200000100000200000100000100000100000200000,
|
|
100000100000100000200000000000000000000000000000,
|
|
100000000000100000000000100000100000000000100000,
|
|
000000000000200000000000200000200000000000200000,
|
|
100000100000100000200000100000100000100100100000,
|
|
100000100000100000200000100000000000200000000000,
|
|
300000000000000000000000000000000000000000100000,
|
|
100000000000100000100000100100100100100100100100,
|
|
100000000000100000100000100000100000000000100000,
|
|
100000000000100100100000200000000000200000000000,
|
|
100000000100100000100000100000100000000000100000,
|
|
100000000000100100100000200000000000200000000000,
|
|
100000000000100000100000100000100000000000500000,
|
|
000008000000100100100000200000000000200000000000,
|
|
100000000000000000100000100000000000100000000000,
|
|
100100100000100100100000100100100000100100100000,
|
|
100100100100100000200200200200200000200000000000,
|
|
100100100100100000200200200200200000400000000000,
|
|
100100100100100000200200200200200000400000000000,
|
|
100100100100100000200000000000200000200000000000,
|
|
100000000000200000100000100000000000200000000000,
|
|
100000200000100000200000100000100000100000200000,
|
|
100000100000100000200000000000000000000000000000,
|
|
100000000000100000000000100000100000000000100000,
|
|
000000000000200000000000200000200000000000200000,
|
|
100000100000100000200000100000100000100100100000,
|
|
100000100000100000200000100000000000200000000000,
|
|
300000000000000000000000000000000000000000100000,
|
|
100000000000100000100000100100100100100100100100,
|
|
100000000000100000100000100000100000000000100000,
|
|
100000000000100100100000200000000000200000000000,
|
|
100000000000100000100000100000100000000000100000,
|
|
100000000000100100100000200000000000200000000000,
|
|
100000000000100000100000100000100000000000500000,
|
|
000008000000100100100000200000000000200000000000,
|
|
100000000000000000100000100000000000100000000000,
|
|
100100100000100100100000100100100000100100100000,
|
|
100100100000100100100000100100100000100100100000,
|
|
100100100000100100100000100100100000100100100000,
|
|
100000000000200000100000100000000000200000000000,
|
|
100000000000200000100000100000000000200000000000,
|
|
100000100000200000200000200000100100100100100000,
|
|
300000000000000000300000000000000000000000000000,
|
|
|
|
|
|
#END
|
|
|
|
|
|
COURSE:Hard
|
|
LEVEL:3
|
|
BALLOON:10
|
|
SCOREINIT:920
|
|
SCOREDIFF:240
|
|
|
|
|
|
#START
|
|
|
|
|
|
100000000000100000000000100000100000100000200000,
|
|
100000100000100000200000000000000000000000000000,
|
|
100000000000100000000000100000100000000000100000,
|
|
000000000000000000000000000000000000000000000000,
|
|
100000100000100000200000000000000000000000000000,
|
|
100000100000100000200000000000000000200000000000,
|
|
300000000000000000000000000000000000000000100000,
|
|
100000000000100000100000000000000000000000000000,
|
|
100000000000100000100000100000100000000000100000,
|
|
100000000000100100100000200000000000200000000000,
|
|
100000000000100000100000100000100000000000100000,
|
|
100000000000100100100000200000000000200000000000,
|
|
100000000000100000100000100000100000000000500000,
|
|
000000000000000800000000000000000000000000000000,
|
|
100000000000000000100000100000000000100000000000,
|
|
300000000000000000000000000000000000000000000000,
|
|
100100100100100000200200200200200000200000000000,
|
|
100100100100100000200200200200200000200000000000,
|
|
100100100100100000200200200200200000200000000000,
|
|
100100100100100000200000000000200000200000000000,
|
|
100000000000200000000000100000000000200000000000,
|
|
100000000000100000000000100000100000100000200000,
|
|
100000100000100000200000000000000000000000000000,
|
|
100000000000100000000000100000100000000000100000,
|
|
000000000000200000000000200000200000000000200000,
|
|
000000000000000000000000200000200000200200200000,
|
|
000000000000000000000000000000000000200000000000,
|
|
300000000000000000000000000000000000000000100000,
|
|
100000000000100000100000000000000000000000000000,
|
|
100000000000100000100000100000100000000000100000,
|
|
100000000000100100100000200000000000200000000000,
|
|
100000000000100000100000100000100000000000100000,
|
|
100000000000100100100000200000000000200000000000,
|
|
100000000000100000100000100000100000000000500000,
|
|
000000000000000000000800000000000000000000000000,
|
|
100000000000000000100000100000000000100000000000,
|
|
700000000000000000000000000000000000000000800000,
|
|
100100100000100100100000100100100000100100100000,
|
|
100100100000100100100000100100100000100100100000,
|
|
100000000000200000100000100000000000200000000000,
|
|
100000000000200000100000100000000000200000000000,
|
|
100000100000200000200000200000100100100100100000,
|
|
300000000000000000300000000000000000000000000000,
|
|
|
|
|
|
#END
|
|
|
|
|
|
COURSE:Normal
|
|
LEVEL:1
|
|
SCOREINIT:1470
|
|
SCOREDIFF:550
|
|
|
|
|
|
#START
|
|
|
|
|
|
100000000000100000000000100000100000100000000000,
|
|
100000000000100000100000000000000000000000000000,
|
|
100000000000000000000000100000000000000000100000,
|
|
000000000000000000000000000000000000000000000000,
|
|
100000100000100000100000000000000000000000000000,
|
|
100000100000100000100000000000000000000000000000,
|
|
300000000000000000000000000000000000000000100000,
|
|
100000000000000000100000000000000000000000000000,
|
|
100000000000100000000000100000100000000000100000,
|
|
100000000000000000000000000000000000000000000000,
|
|
100000000000100000000000100000100000000000100000,
|
|
100000000000000000000000000000000000000000000000,
|
|
100000000000100000100000100000100000000000500000,
|
|
000000000000000000800000000000000000000000000000,
|
|
100000000000000000000000100000000000100000000000,
|
|
300000000000000000000000000000000000000000000000,
|
|
000000000000000000000000200000000000200000000000,
|
|
000000000000000000000000200000000000200000000000,
|
|
000000000000000000000000200000200000200000000000,
|
|
000000000000000000200000000000200000200000000000,
|
|
000000000000200000000000000000000000200000000000,
|
|
100000000000100000000000100000100000100000000000,
|
|
100000000000100000100000000000000000000000000000,
|
|
100000000000000000000000100000000000000000100000,
|
|
000000000000200000000000200000200000000000200000,
|
|
000000000000000000000000000000000000200000000000,
|
|
000000000000000000000000000000000000200000000000,
|
|
300000000000000000000000000000000000000000100000,
|
|
100000000000000000100000000000000000000000000000,
|
|
100000000000100000000000100000100000000000100000,
|
|
100000000000000000000000000000000000000000000000,
|
|
100000000000100000000000100000100000000000100000,
|
|
100000000000000000000000000000000000000000000000,
|
|
100000000000100000100000100000100000000000500000,
|
|
000000000000000000800000000000000000000000000000,
|
|
100000000000000000000000100000000000100000000000,
|
|
300000000000000000000000000000000000000000000000,
|
|
100000000000000000000000100000000000000000000000,
|
|
100000000000100000000000100000000000100000000000,
|
|
100000000000200000000000000000000000200000000000,
|
|
100000000000200000000000000000000000200000000000,
|
|
100000000000200000000000200000000000000000000000,
|
|
300000000000000000300000000000000000000000000000,
|
|
|
|
|
|
#END
|
|
|
|
|
|
COURSE:Easy
|
|
LEVEL:3
|
|
SCOREINIT:1620
|
|
SCOREDIFF:480
|
|
|
|
|
|
#START
|
|
|
|
|
|
100000000000000000000000100000000000000000000000,
|
|
100000000000100000000000000000000000000000000000,
|
|
100000000000000000000000100000000000000000100000,
|
|
000000000000200000000000200000000000000000200000,
|
|
000000000000000000000000000000000000200000000000,
|
|
000000000000000000000000000000000000200000000000,
|
|
100000000000000000000000000000000000000000000000,
|
|
100000000000000000100000000000000000000000000000,
|
|
100000000000100000000000100000000000000000000000,
|
|
100000000000000000000000000000000000000000000000,
|
|
100000000000100000000000100000000000000000000000,
|
|
100000000000000000000000000000000000000000000000,
|
|
100000000000100000000000100000000000000000500000,
|
|
000000000000000000800000000000000000000000000000,
|
|
100000000000000000000000100000000000100000000000,
|
|
300000000000000000000000000000000000000000000000,
|
|
000000000000000000000000200000000000200000000000,
|
|
000000000000000000000000200000000000200000000000,
|
|
000000000000000000000000100000000000100000000000,
|
|
000000000000000000000000100000000000100000000000,
|
|
000000000000000000000000000000000000000000000000,
|
|
100000000000000000000000100000000000000000000000,
|
|
100000000000100000000000000000000000000000000000,
|
|
100000000000000000000000100000000000000000100000,
|
|
000000000000200000000000200000000000000000200000,
|
|
000000000000000000000000000000000000100000000000,
|
|
000000000000000000000000000000000000100000000000,
|
|
300000000000000000000000000000000000000000000000,
|
|
100000000000000000100000000000000000000000000000,
|
|
100000000000100000000000100000000000000000000000,
|
|
500000000000000000800000000000000000000000000000,
|
|
100000000000100000000000100000000000000000000000,
|
|
500000000000000000800000000000000000000000000000,
|
|
100000000000100000000000100000000000000000500000,
|
|
000000000000000000800000000000000000000000000000,
|
|
100000000000000000000000100000000000100000000000,
|
|
300000000000000000000000000000000000000000000000,
|
|
100000000000000000000000100000000000000000000000,
|
|
100000000000100000000000100000000000100000000000,
|
|
100000000000200000000000000000000000200000000000,
|
|
100000000000200000000000000000000000200000000000,
|
|
100000000000200000000000200000000000000000000000,
|
|
300000000000000000300000000000000000000000000000,
|
|
|
|
|
|
#END
|
|
|