forked from ESE/ESE
280 lines
11 KiB
Plaintext
280 lines
11 KiB
Plaintext
//TJADB Project
|
|
TITLE:School Days
|
|
TITLEJA:School Days
|
|
SUBTITLE:--Guardians 4 (Hello! Project)/Shugo Chara‼ Doki
|
|
SUBTITLEJA:アニメ「しゅごキャラ!!どきっ」より
|
|
BPM:140
|
|
WAVE:School Days.ogg
|
|
OFFSET:-1.920
|
|
DEMOSTART:65.768
|
|
|
|
COURSE:Oni
|
|
LEVEL:7
|
|
BALLOON:35
|
|
SCOREINIT:700
|
|
SCOREDIFF:160
|
|
|
|
|
|
#START
|
|
|
|
|
|
700000000000000000000000000000000000000000000000,
|
|
000000000000000000000000000000000000800000000000,
|
|
100100100000000000200000100100100000000000200000,
|
|
100100100000200200200000100100100000200200200000,
|
|
100000100100000100100000100000100000200000200000,
|
|
100000100100000100100000100100200200100100200200,
|
|
100000100100100000200000000000200000100000200000,
|
|
100000100100100000200000000000200000100000200000,
|
|
100000100100100000200000100000200000100000200000,
|
|
100000100100100000200000100000100100100200200200,
|
|
100000100100100000200000000000200000100000200000,
|
|
100000100100100000200000000000200000100000200000,
|
|
100000100100100000200000100000200000100000200000,
|
|
100000100100100000200000100200200200100100100000,
|
|
100000200200100000200000000000200000100000200000,
|
|
100000200200100000200000000000200000100000200000,
|
|
100000200200100000200000100000200000100000200000,
|
|
100000200200100000200000100200200200100100100000,
|
|
100000200200100000200000000000200000100000200000,
|
|
100000200200100000200000000000200000100000200000,
|
|
100000200200100000200000100000200000100000200000,
|
|
100000200200100000200200100100200200100100200200,
|
|
100000000000200000100000100000200000200000100000,
|
|
000000200000100000200000100000200100100100200000,
|
|
100000000000200000100000100000200000200000100000,
|
|
000000200000100000200000100000200100100100200000,
|
|
100000100000000000200200100000100000200000000000,
|
|
100000200000100000200200100000200000200000000000,
|
|
100000200000200000100000200000200000300000300000,
|
|
000000000000200000000000200000000000200000000000,
|
|
|
|
#GOGOSTART
|
|
100000200200100000200000100000200000100000200200,
|
|
100000200000100000200000100000200200100200000200,
|
|
100000200000100000200000100000200200100000200000,
|
|
000000100100100000200200200000100100200200200000,
|
|
100000200200100000200000100000200000100000200200,
|
|
100000200000100000200000100000200200100200000200,
|
|
100000200000200200200000100000200000200200200000,
|
|
100000000000200000000000200000000000200000000000,
|
|
100000200200100000200000100000200000100000200200,
|
|
100000200000100000200000100000200200100200000200,
|
|
100000200000100000200000100000200200100000200000,
|
|
000000100100100000200200200000100100200200200000,
|
|
100000200200100000200000100000200000100000200200,
|
|
100000200000100000200000100000200200100200000200,
|
|
100000200000200200200000100000200000200200100000,
|
|
000000100000000000100000100000200200200000000000,
|
|
|
|
#GOGOEND
|
|
100000200200100000200000000000200000100000200000,
|
|
100000200200100000200000000000200000100000200200,
|
|
100000200000200000100000200000200000100000300000,
|
|
000000300000300000300000000000000000300000000000,
|
|
|
|
|
|
#END
|
|
|
|
|
|
COURSE:Hard
|
|
LEVEL:6
|
|
BALLOON:25
|
|
SCOREINIT:870
|
|
SCOREDIFF:210
|
|
|
|
|
|
#START
|
|
|
|
|
|
700000000000000000000000000000000000000000000000,
|
|
000000000000000000000000000000000800000000000000,
|
|
100000100000000000200000100000100000000000200000,
|
|
100000100000000000200000100000100000000000000000,
|
|
100000100100000100100000100000000000200000000000,
|
|
100000100100000100100000500000000000000800000000,
|
|
100000000000200000000000100000200000100000000000,
|
|
100000100000200000000000100000200000100000000000,
|
|
100000000000200000000000100000200000100000000000,
|
|
100000100000200000000000100100100000200000000000,
|
|
100000000000200000000000100000200000100000000000,
|
|
100000100000200000000000100000200000100000000000,
|
|
100000000000200000000000100000200000100000000000,
|
|
100000100000200000000000100100100000200000000000,
|
|
100000200000200000000000100000200000100000000000,
|
|
100000200000200000000000100000200000100000200000,
|
|
100000200000200000000000100000200000100000000000,
|
|
100000200000200000000000100100100000200000000000,
|
|
100000200000200000000000100000200000100000000000,
|
|
100000200000200000000000100000200000100000200000,
|
|
100000200000200000000000100000200000100000000000,
|
|
100000200000200000200000100000000000000000000000,
|
|
100000000000200000100000100000200000200000100000,
|
|
000000000000200000000000100100100000200000000000,
|
|
100000000000200000100000100000200000200000100000,
|
|
000000000000200000000000100100100000200000000000,
|
|
100000100000200000000000100000100000200000000000,
|
|
100000200000100000000000100000200000100000000000,
|
|
100000100000100000200000200000200000300000300000,
|
|
000000000000000000000000000000000000000000000000,
|
|
#GOGOSTART
|
|
100000100000200000200000100000000000200000100100,
|
|
100000200000000000200000100000200200200000200000,
|
|
100000100000200000000000100000200000100100100000,
|
|
000000100000200000000000100000000000200000000000,
|
|
100000100000200000200000100000000000200000100100,
|
|
100000000000200000000000100000200200200000000000,
|
|
100000200000000000200000100000200000000000200000,
|
|
100000000000000000000000000000000000000000000000,
|
|
100000100000200000200000100000000000200000100100,
|
|
100000200000000000200000100000200200200000200000,
|
|
100000100000200000000000100000200000100100100000,
|
|
000000100000200000000000100000000000200000000000,
|
|
100000100000200000200000100000000000200000100100,
|
|
100000000000200000000000100000200200200000000000,
|
|
100000200000000000200000500000000000000000000000,
|
|
000000000000000000000800000000000000000000000000,
|
|
#GOGOEND
|
|
100000000000200000000000100000100000200000000000,
|
|
100000000000200000000000100000100000200000000000,
|
|
100000100000100000200000200000200000100000100000,
|
|
000000100000100000100000000000000000300000000000,
|
|
|
|
|
|
#END
|
|
|
|
|
|
COURSE:Normal
|
|
LEVEL:3
|
|
BALLOON:10
|
|
SCOREINIT:1050
|
|
SCOREDIFF:310
|
|
|
|
|
|
#START
|
|
|
|
|
|
500000000000000000000000000000000000000000000000,
|
|
000000000000000000800000000000000000000000000000,
|
|
100000000000000000000000100000000000000000000000,
|
|
100000000000000000000000100000100000100000000000,
|
|
300000000000000000000000100000000000100000000000,
|
|
300000000000000000000000300000000000000000000000,
|
|
100000000000000000000000100000000000100000000000,
|
|
100000000000000000000000100000000000100000000000,
|
|
100000000000000000000000100000000000000000000000,
|
|
100000000000100000000000200000000000000000000000,
|
|
100000000000000000000000100000000000100000000000,
|
|
100000000000000000000000100000000000100000000000,
|
|
100000000000000000000000100000000000000000000000,
|
|
100000000000100000000000200000000000000000000000,
|
|
100000000000000000000000100000000000200000000000,
|
|
100000000000000000000000100000000000200000000000,
|
|
100000000000200000000000100000000000200000000000,
|
|
100000000000100000000000200000000000000000000000,
|
|
100000000000000000000000100000000000200000000000,
|
|
100000000000000000000000100000000000200000000000,
|
|
100000000000200000000000100000000000200000000000,
|
|
100000000000100000100000100000000000000000000000,
|
|
100000000000000000100000100000000000000000000000,
|
|
100000000000100000000000100000000000000000000000,
|
|
100000000000000000100000100000000000000000000000,
|
|
100000000000100000000000100000000000000000000000,
|
|
100000000000100000000000200000000000000000000000,
|
|
100000000000200000000000100000000000200000000000,
|
|
700000000000000000000000000000000000000000800000,
|
|
000000000000000000000000000000000000000000000000,
|
|
#GOGOSTART
|
|
100000000000100000100000100000000000000000000000,
|
|
100000000000200000000000100000000000200000000000,
|
|
100000000000200000000000100000000000100000100000,
|
|
000000000000000000000000200000000000000000000000,
|
|
100000000000000000000000100000000000100000100000,
|
|
100000000000100000000000100000000000100000000000,
|
|
300000000000000000000000300000000000000000000000,
|
|
300000000000000000000000000000000000000000000000,
|
|
100000000000100000100000100000000000000000000000,
|
|
100000000000200000000000100000000000200000000000,
|
|
100000000000100000000000100000000000100000100000,
|
|
000000000000000000000000200000000000000000000000,
|
|
100000000000000000000000100000000000100000100000,
|
|
100000000000100000000000100000000000100000000000,
|
|
100000000000000000100000500000000000000000000000,
|
|
000000000000000000800000000000000000000000000000,
|
|
#GOGOEND
|
|
100000000000100000000000200000000000000000000000,
|
|
100000000000100000000000200000000000000000000000,
|
|
300000000000000000300000000000000000600000000000,
|
|
000000000000000000800000000000000000300000000000,
|
|
|
|
|
|
#END
|
|
|
|
|
|
COURSE:Easy
|
|
LEVEL:2
|
|
BALLOON:6,6
|
|
SCOREINIT:1040
|
|
SCOREDIFF:460
|
|
|
|
|
|
#START
|
|
|
|
|
|
000000000000000000000000000000000000000000000000,
|
|
000000000000000000000000000000000000000000000000,
|
|
100000000000000000000000100000000000000000000000,
|
|
100000000000000000000000100000000000000000000000,
|
|
300000000000000000000000000000000000000000000000,
|
|
300000000000000000000000000000000000000000000000,
|
|
100000000000000000000000100000000000000000000000,
|
|
100000000000000000000000000000000000000000000000,
|
|
100000000000000000000000100000000000100000000000,
|
|
100000000000000000000000000000000000000000000000,
|
|
100000000000000000000000100000000000000000000000,
|
|
100000000000000000000000000000000000000000000000,
|
|
100000000000000000000000100000000000100000000000,
|
|
100000000000000000000000000000000000000000000000,
|
|
100000000000000000000000200000000000000000000000,
|
|
100000000000000000000000000000000000000000000000,
|
|
100000000000000000000000200000000000200000000000,
|
|
200000000000000000000000000000000000000000000000,
|
|
100000000000000000000000200000000000000000000000,
|
|
100000000000000000000000000000000000000000000000,
|
|
100000000000000000000000200000000000200000000000,
|
|
200000000000000000000000000000000000000000000000,
|
|
100000000000000000000000100000000000000000000000,
|
|
200000000000200000000000200000000000000000000000,
|
|
100000000000000000000000100000000000000000000000,
|
|
200000000000200000000000200000000000000000000000,
|
|
100000000000000000000000100000000000000000000000,
|
|
100000000000100000000000100000000000000000000000,
|
|
700000000000000000000000000000000000000000800000,
|
|
000000000000000000000000000000000000000000000000,
|
|
#GOGOSTART
|
|
100000000000100000000000100000000000000000000000,
|
|
100000000000000000000000100000000000000000000000,
|
|
100000000000100000000000100000000000100000000000,
|
|
100000000000000000000000000000000000000000000000,
|
|
100000000000000000000000100000000000100000000000,
|
|
100000000000000000000000100000000000000000000000,
|
|
300000000000000000000000300000000000000000000000,
|
|
300000000000000000000000000000000000000000000000,
|
|
100000000000100000000000100000000000000000000000,
|
|
100000000000000000000000100000000000000000000000,
|
|
100000000000100000000000100000000000100000000000,
|
|
100000000000000000000000000000000000000000000000,
|
|
100000000000000000000000100000000000100000000000,
|
|
100000000000000000000000100000000000000000000000,
|
|
200000000000000000000000500000000000000000000000,
|
|
000000000000000000800000000000000000000000000000,
|
|
#GOGOEND
|
|
100000000000000000000000200000000000000000000000,
|
|
100000000000000000000000200000000000000000000000,
|
|
700000000000000000000000000000000000000000800000,
|
|
000000000000000000000000000000000000300000000000,
|
|
|
|
|
|
#END
|
|
|