Files
2023-01-17 00:45:18 -05:00

300 lines
3.8 KiB
Plaintext

//TJADB Project
TITLE:Seishun Satsubatsuron
TITLEJA:青春サツバツ論
SUBTITLE:--San-nen E-Gumi Utatan/Assassination Classroom
SUBTITLEJA:「暗殺教室」より
BPM:146
WAVE:Seishun Satsubatsuron.ogg
OFFSET:-1.852
DEMOSTART:46.980
COURSE:Oni
LEVEL:8
BALLOON:10,7
SCOREINIT:770
SCOREDIFF:208
#START
,
33,
1122700000000080,
1020112101221120,
1020112101201122,
1020112101221120,
1021021010003000,
11010120,
11010120,
#MEASURE 6/4
101000201111111110001000,
#MEASURE 4/4
1020102210201022,
1020102210201111,
11020121,
11020121,
1121201112101010,
21112121,
1010201210221010,
0020200040040040,
11000012,
02000120,
1010001120000000,
2012012011111120,
1001201120212011,
2001201120001111,
1020002020022020,
000000500000000000000000000000000000000008000000,
1010102200000000,//27
#GOGOSTART
1020102101221020,
1020102110210120,
1020102101221020,
3330,
1010201020112020,
1010201020112020,
11111111,
1011201110112000,
1020102101221020,
1020102111211120,
1020102101221020,
1020102111211122,
10202022,
1020101020112210,
1022111110112222,
1022111110112222,
12121212,
1122700000008000,
111222,
121400,//47
#GOGOEND
1020100020100011,
22120444,
1020100020100011,
2020102010101122,
1,
#END
COURSE:Hard
LEVEL:7
BALLOON:8,8
SCOREINIT:770
SCOREDIFF:220
#START
,
33,
1111700000000080,
1010111101101000,
1010111101101000,
1010111101101000,
1001001010003000,
11010120,
11010120,
#MEASURE 6/4
101000001111101010001000,
#MEASURE 4/4
12101210,
12121210,
11020120,
11020120,
1111101111101010,
21112121,
1010201110222010,
0020200040040040,
11000012,
02000120,
1010002220000000,
1001001010111000,
1001101010011010,
100000000100100000100000500000000000000008000000,
0020002020022020,
06000000,
000000000000000008000000000000000000000000000000,//27
#GOGOSTART
12121212,
1020102100000000,
12121212,
3330,
11212122,
11212122,
11111111,
1011101110004000,
12121212,
1020102100200020,
12121212,
3330,
10202022,
1000200020102220,
1020111010202220,
1020111010202220,
12121212,
1111700000000080,
111111,
111400,//47
#GOGOEND
1020100020100011,
20120444,
0010200020100011,
2000102010101111,
1,
#END
COURSE:Normal
LEVEL:5
BALLOON:8,23,8
SCOREINIT:960
SCOREDIFF:343
#START
,
33,
7008,
1110,
1110,
1110,
1001001010000000,
11000020,
11000020,
#MEASURE 6/4
101011,
#MEASURE 4/4
1212,
1210,
11010020,
11010020,
30030070,
,
,
8,
11000012,
02000120,
11002000,
1001001010000000,
11102220,
100000100000100000000000500000000000000008000000,
04044044,
06000000,
000000000000000008000000000000000000000000000000,//27
#GOGOSTART
11101110,
1010100300000000,
11101110,
3330,
20202022,
2220,
10101110,
11111040,
11101110,
1010100300000000,
11101110,
3330,
20202022,
2220,
11101110,
100000100000100000000000500000000000000008000000,
11101110,
7008,
5,
000000000000000008000000300000000000000000000000,//47
#GOGOEND
01102000,
10110444,
01102000,
100000000000100000100000500000000000000000000008,
#END
COURSE:Easy
LEVEL:4
BALLOON:6,20,6
SCOREINIT:840
SCOREDIFF:423
#START
,
33,
7008,
11,
1110,
11,
500000000000000000000000000008000000000000000000,
1,
1,
#MEASURE 6/4
101011,
#MEASURE 4/4
12,
12,
1002,
1002,
30030070,
,
,
8,
500000000000000000000008000000000000000000100000,
01000000,
500000000000000000000008000000000000000000000000,
11,
1122,
1110,
04004040,
06000000,
000000000000000008000000000000000000000000000000,//27
#GOGOSTART
1111,
1110,
1111,
3330,
2222,
2220,
1212,
3330,
1111,
1110,
1111,
3330,
2222,
2220,
1212,
3330,
1212,
7008,
5,
000000000000000000000000000008000000000000000000,//47
#GOGOEND
1120,
1100,
1120,
100000000000100000000000500000000000000000000008,
#END