Files
2023-01-17 00:45:18 -05:00

350 lines
4.6 KiB
Plaintext

//TJADB Project
TITLE:Shinkalion
TITLEJA:進化理論
SUBTITLE:--BOYS AND MEN/Shinkansen Henkei Robo Shinkalion
SUBTITLEJA:テレビアニメ「新幹線変形ロボ シンカリオン」より
BPM:182
WAVE:Shinkalion.ogg
OFFSET:-1.422
DEMOSTART:2.233
COURSE:Oni
LEVEL:6
BALLOON:10,14
SCOREINIT:680
SCOREDIFF:200
#START
0000000000303030,
0000000000303030,
0000000000303030,
,
3000003000004000,
1111101111104000,
#GOGOSTART
3000300030400040,
0000001020002000,
1000200011102010,
0020201020112000,
3000300030400040,
0000001020002000,
1000200011102010,
0020201020112000,
#GOGOEND
1000201010102010,
0010201000201020,
0010201000201020,
0010201022222000,
1000201010102010,
0010201000201020,
0010201000201020,
0000200030003000,
4000004000000030,
0030400040001010,
0010201010002010,
0010400040002000,
1010102000101020,
0010202000000010,
1000001020100010,
0020002220201010,
3000201000102010,
0020102000200010,
3000103000300040,
0000000000001010,
3000201000102010,
0020102000200010,
7008,
0010200010002000,
1000101020001010,
0010001020111000,
1010201110102020,
0000201020102000,
1010001110002020,
0020101120002000,
0030303030300040,
000000300000300000600000000008000000400000000000,
#GOGOSTART
0000111011102000,
0000111011102000,
0000111011102000,
1110100022202000,
7000000000000000,
81111120,
#SCROLL 2
500000000000000000000000000000000008000000000000,
#SCROLL 1
3000003000003000,
4000111011102000,
3000111011102000,
3000111011102000,
1110100022202000,
1110201000102010,
2220102000001010,
2010201020112010,
4000000000000000,
3000300030400040,
0000001020002000,
1000200011102010,
0020201020112000,
#GOGOEND
3000300030400040,
#END
COURSE:Hard
LEVEL:5
SCOREINIT:700
SCOREDIFF:220
BALLOON:12,12
#START
0000000000303030,
0000000000303030,
0000000000303030,
,
3000003000003000,
6000806000804000,
#GOGOSTART
3000300030300030,
0000001020002000,
1000100020200010,
0020202020000000,
3000300030300030,
0000001020002000,
1000100020200010,
0020202020000000,
#GOGOEND
1000101010100010, //15
0010101000200020,
0010101000101010,
0020002000000000,
1000101010100010,
0010101000200020, //20
0010101000100020,
0000000040004000,
3000003000000030,
0030300040001010,
0010101010001010, //25
0010200020000000,
1010101000101010,
0020202000000010,
1000001000100020,
0000000000001010, //30
1000001000101010,
0020202000200010,
1000001000100040,
0000000000001010,
1000001000101010, //35
0020202000200000,
7000000000000080,
0000000020002000,
1000101020000000,
1010100020002000, //40
1010001010101010,
0000200020002000,
1010002020001010,
0020200030004000,
0010101010100030, //45
0030303000004000,
#GOGOSTART
0000300030004000,
0000300030004000,
0000300030004000,
3000300040004000, //50
7000000000000080,
0010101010003000,
#SCROLL 2
5000000000000008,
#SCROLL 1
,
0000300030004000, //55
0000300030004000,
0000300030004000,
3000300040004000,
1000101000202000,
3000004000001000, //60
1010200010102000,
3,
3000300030300030,
0000001020002000,
1000100020200010, //65
0020202020000000,
#GOGOEND
3000300030300030,
,
#END
COURSE:1
LEVEL:4
SCOREINIT:1010
SCOREDIFF:458
BALLOON:10,7,7,6
#START
00000003,
00000003,
00000003,
,
30030030, //5
,
#GOGOSTART
30303303,
00002020,
10101005,
00000800, //10
30303303,
00002020,
10101005,
00000800,
#GOGOEND
10101000, //15
10002000,
10001000,
10002000,
10101000,
10002000, //20
10001000,
10003030,
30030003,
00303001,
00101001, //25
00202000,
7,
00080000,
20020202,
, //30
10010105,
00000800,
30030303,
,
10010105, //35
00080000,
70000008,
,
10002000,
10002000, //40
50000008,
,
10001000,
10002020,
05000806, //45
00000080,
#GOGOSTART
00101020,
00101020,
00101020,
10102020, //50
50000008,
,
70000008,
,
00101020, //55
00101020,
00101020,
10102020,
30030000,
30030000, //60
90000008,
,
30303303,
00002020,
10101005, //65
00000800,
#GOGOEND
30303303,
,
#END
COURSE:0
LEVEL:3
SCOREINIT:1000
SCOREDIFF:600
BALLOON:4,4,4,9,6,6,5
#START
00000007,
00000807,
00000807,
00000800,
60000000, //5
8,
#GOGOSTART
30303006,
08000000,
10101005,
00008000, //10
30303006,
08000000,
10101005,
00008000,
#GOGOEND
11, //15
,
11,
1,
11,
, //20
11,
1,
30030003,
03,
, //25
00202000,
7,
0008,
2,
, //30
10010005,
00000800,
10010003,
,
10010005, //35
00000800,
70000008,
,
11,
1, //40
1033,
,
11,
1011,
06000000, //45
00000080,
#GOGOSTART
00101010,
00101010,
00101010,
12, //50
5,
8,
7,
8,
00101010, //55
00101010,
00101010,
12,
3,
3, //60
9,
8,
30303006,
08000000,
10101005, //65
00000800,
#GOGOEND
30303003,
,
#END