forked from ESE/ESE
340 lines
13 KiB
Plaintext
340 lines
13 KiB
Plaintext
//TJADB Project
|
|
TITLE:Sign
|
|
TITLEJA:Sign
|
|
SUBTITLE:--FLOW/NARUTO-Shippuuden
|
|
SUBTITLEJA:「NARUTO-ナルト- 疾風伝」より
|
|
BPM:73.9
|
|
WAVE:Sign.ogg
|
|
OFFSET:-1.834
|
|
DEMOSTART:57.753
|
|
BGMOVIE:Sign.mp4
|
|
|
|
COURSE:Oni
|
|
LEVEL:7
|
|
SCOREINIT:750
|
|
SCOREDIFF:180
|
|
|
|
|
|
#START
|
|
|
|
|
|
#SCROLL 1.0013531799729363
|
|
100000000000000000000000100000000000200000000100,
|
|
100000000000000000000000100000100000200000000000,
|
|
100000000000000000000000100000000000200000000100,
|
|
#MEASURE 2/4
|
|
#BPMCHANGE 90
|
|
#SCROLL 0.8222222222222222
|
|
1,
|
|
#MEASURE 4/4
|
|
#BPMCHANGE 177.954
|
|
#SCROLL 1.0002584937680523
|
|
100100100000000000100100100000000000200000000000,
|
|
500000000000000000000000000000000008000000000000,
|
|
100000100000100000200000100100100000200000100000,
|
|
100100100000100000200000100000100000200000000000,
|
|
100000100000100000200000100100100000200000100000,
|
|
100000100100100000200000100100100000200000000000,
|
|
100000100000100000200000100100100000200000100000,
|
|
100100100000100000200000100100100000200000000000,
|
|
100000100000100000200000100000100000200000100000,
|
|
000000000000000000000000000000000000000000000000,
|
|
100000100000200000100000100000100000200000100000,
|
|
000000100000200000000000100000100000200000000000,
|
|
100000100000200000100000100000100000200000100000,
|
|
000000100000200000000000300000400000000000100000,
|
|
000000100000200000000100100000100000200000100000,
|
|
000000100000200000000100100000100000200000100000,
|
|
000000100000200000000100100000100000200000100000,
|
|
000000100000200000000000100000100100100000000000,
|
|
100000100000200000100000100000100000200000100000,
|
|
000000100000200000000000100000100000200000000000,
|
|
100000100000200000100000100000100000200000100000,
|
|
000000100000200000000000300000400000000000100000,
|
|
000000100000200000000100100000100000200000100000,
|
|
000000100000200000000100100000100000200000100000,
|
|
000000100000200000000100100000100000200000500000,
|
|
000000000000000000000000000008000000000000000000,
|
|
100000100000000000100000200000000000100000200000,
|
|
100000100000000000100000200000000000100000200000,
|
|
100000100000000000100000200000000000100000200000,
|
|
100000100000000000100000200000000000100000200000,
|
|
100000000000100000100000200000200000100000100000,
|
|
200000100000100000200000100000100000200000000000,
|
|
100100100000200000100100100000200000100100100100,
|
|
100000000000000000000000000000000000000000000000,
|
|
|
|
#GOGOSTART
|
|
100000000000200000000100100000100000200000100100,
|
|
100000100000200000100100100000100000200000100000,
|
|
300000000000400000000000300000000000600000000000,
|
|
000000000008000000000000100000100000200000100000,
|
|
000000100000200000100100100000100000200000100000,
|
|
000000100000200000100100100000100000200000100000,
|
|
000000100000200000000000100000100000200000000000,
|
|
400000300000400000300000400000000200200000100000,
|
|
100000000000200000000100100000100000200000100100,
|
|
100000100000200000100100100000100000200000100000,
|
|
300000000000400000000000300000000000600000000000,
|
|
000000000008000000000000100000100000200000100000,
|
|
000000100000200000100100100000100000200000100000,
|
|
000000100000200000100100100000100000200000100000,
|
|
000000100000200000000000100000100000200000000000,
|
|
100000100000200000000000200000100100200000100000,
|
|
200000100000100000100000200000100000200000100000,
|
|
200200100000200200100000300000000000000000000000,
|
|
|
|
#GOGOEND
|
|
300000100000200000100000400000000000100000100000,
|
|
300000100000200000100000400000000000100000100000,
|
|
300000100000200000100000300000300000400000300000,
|
|
|
|
|
|
#END
|
|
|
|
|
|
COURSE:Hard
|
|
LEVEL:6
|
|
SCOREINIT:740
|
|
SCOREDIFF:200
|
|
|
|
|
|
#START
|
|
|
|
|
|
100000000000000000000000100000000000200000000000,
|
|
100000000000000000000000100000000000200000000000,
|
|
100000000000000000000000100000000000200000000000,
|
|
#BPMCHANGE 99
|
|
#SCROLL 0.75
|
|
#MEASURE 2/4
|
|
100000000000000000000000,
|
|
000000000000000000000000,
|
|
#MEASURE 4/4
|
|
#BPMCHANGE 178
|
|
#SCROLL 1
|
|
300000300000000000300000300000000000400000000000,
|
|
600000000000000000000000000800000000000000000000,
|
|
100000000000100000200000100000000000100000000000,
|
|
100000000000100100100000100000000000100000000000,
|
|
100000000000100000200000100000000000100000000000,
|
|
100000200000100000000000200000100000100000000000,
|
|
100000000000100000200000100000000000200000000000,
|
|
100000000000100100100000100000000000100000000000,
|
|
100000100000200000000000100000100000200000100000,
|
|
000000000000000000000000000000000000000000000000,
|
|
100000000000200000000000100000100000200000100000,
|
|
000000100000200000000000100000100000200000000000,
|
|
100000000000200000000000100000100000200000100000,
|
|
000000100000200000000000300000300000000000100000,
|
|
000000100000200000000000100000100000200000100000,
|
|
000000100000200000000000100000100000200000100000,
|
|
000000100000200000000000100000100000200000000000,
|
|
100000000000000000000000000000000000000000000000,
|
|
100000000000200000000000100000100000200000100000,
|
|
000000100000200000000000100000100000200000000000,
|
|
100000000000200000000000100000100000200000100000,
|
|
000000100000200000000000300000300000000000100000,
|
|
000000100000200000000000100000100000200000100000,
|
|
000000100000200000000000100000100000200000100000,
|
|
000000100000200000100000000000100000200000500000,
|
|
000000000000000000000000000000000800000000000000,
|
|
100000100000000000100000200000000000100000200000,
|
|
100000100000000000100000200000000000100000200000,
|
|
100000100000000000100000200000000000100000200000,
|
|
100000100000000000100000000000000000000000000000,
|
|
100000100100100000000000200000200000000000100000,
|
|
200000100000100000200000100000100000200000000000,
|
|
500000000000000000000000000000000800000000000000,
|
|
300000000000000000000000000000000000000000000000,
|
|
#GOGOSTART
|
|
100000000000200000000000100100100000200000000000,
|
|
100000100000200000000000100100100000200000000000,
|
|
100000000000200000000000100100100000200000000000,
|
|
100000100000200000000000100100100000200000100000,
|
|
000000100000200000000000100000100000200000100000,
|
|
000000100000200000000000100000100000200000100000,
|
|
000000500000000000000000000000000000000000000800,
|
|
000000000000300000000000300000000000300000000000,
|
|
300000000000400000000000300000000000400000000000,
|
|
100000100000200000000000100100100000200000000000,
|
|
300000000000400000000000300000000000400000000000,
|
|
100000100000200000000000100100100000200000100000,
|
|
000000100000200000000000100000100000200000100000,
|
|
000000100000200000000000100000100000200000100000,
|
|
000000100000200000000000100000100000200000000000,
|
|
100000000000000000000000100100100000200000100000,
|
|
000000100000200000100000200000100000200000100000,
|
|
100100100000100100100000400000000000000000000000,
|
|
#GOGOEND
|
|
100000000000100000200000100000000000100000000000,
|
|
100000000000100100100000100000000000200000000000,
|
|
500000000000000000000000000000000000000000000800,
|
|
|
|
|
|
#END
|
|
|
|
|
|
COURSE:Normal
|
|
LEVEL:5
|
|
SCOREINIT:1150
|
|
SCOREDIFF:320
|
|
|
|
|
|
#START
|
|
|
|
|
|
100000000000000000000000100000000000200000000000,
|
|
100000000000000000000000200000000000000000000000,
|
|
100000000000000000000000100000000000200000000000,
|
|
#MEASURE 2/4
|
|
#BPMCHANGE 99
|
|
#SCROLL 0.75
|
|
100000000000000000000000,
|
|
#SCROLL 1
|
|
#MEASURE 4/4
|
|
#BPMCHANGE 178
|
|
300000000000000000000000300000000000300000000000,
|
|
600000000000000000000000800000000000000000000000,
|
|
100000000000100000000000100000000000000000000000,
|
|
100000000000000000000000200000000000000000000000,
|
|
100000000000100000000000100000000000000000000000,
|
|
100000000000000000000000000000000000000000000000,
|
|
100000000000100000000000100000000000000000000000,
|
|
100000000000000000000000200000000000000000000000,
|
|
500000000000000000000000000000000000000000800000,
|
|
000000000000000000000000000000000000000000000000,
|
|
100000000000100000000000100000000000000000000000,
|
|
200000000000000000000000100000000000000000000000,
|
|
100000000000100000000000100000000000000000000000,
|
|
200000000000000000000000000000000000000000000000,
|
|
100000000000100000000000200000000000000000000000,
|
|
100000000000100000000000200000000000200000000000,
|
|
100000000000500000000000000000000000000000800000,
|
|
000000000000000000000000000000000000000000000000,
|
|
100000000000100000000000200000000000000000000000,
|
|
100000000000000000000000200000000000000000000000,
|
|
100000000000100000000000200000000000000000000000,
|
|
100000000000000000000000000000000000000000000000,
|
|
100000000000100000000000200000000000000000000000,
|
|
100000000000100000000000200000000000200000000000,
|
|
100000000000000000000000200000000000000000000000,
|
|
500000000000000000000000800000000000000000000000,
|
|
100000000000100000100000000000000000200000000000,
|
|
100000000000100000100000000000000000000000000000,
|
|
100000000000100000100000000000000000200000000000,
|
|
100000000000100000100000000000000000000000000000,
|
|
100000000000100000100000000000000000200000000000,
|
|
100000000000100000000000200000000000200000000000,
|
|
500000000000000000000000000000800000000000000000,
|
|
300000000000000000000000000000000000000000000000,
|
|
#GOGOSTART
|
|
300000000000300000000000300000000000300000000000,
|
|
000000000000100000000000200000000000100000000000,
|
|
300000000000300000000000300000000000600000000000,
|
|
000000800000000000000000000000000000000000000000,
|
|
100000000000200000000000100000100000100000000000,
|
|
100000000000200000000000100000100000100000000000,
|
|
500000000000000000000000000000800000000000000000,
|
|
000000000000000000000000000000000000000000000000,
|
|
300000000000300000000000300000000000300000000000,
|
|
000000000000100000000000200000000000100000000000,
|
|
300000000000300000000000300000000000600000000000,
|
|
000000000000000000800000000000000000000000000000,
|
|
100000000000200000000000100000100000100000000000,
|
|
100000000000200000000000100000100000100000000000,
|
|
500000000000000000000000000000000000000000800000,
|
|
000000000000000000000000000000000000000000000000,
|
|
300000000000000000000000400000000000000000000000,
|
|
300000000000300000000000400000000000000000000000,
|
|
#GOGOEND
|
|
100000000000100000000000200000000000000000000000,
|
|
100000100000100000000000200000000000000000000000,
|
|
500000000000000000000000000000000000000000800000,
|
|
|
|
|
|
#END
|
|
|
|
|
|
COURSE:Easy
|
|
LEVEL:3
|
|
BALLOON:6,4,6,6
|
|
SCOREINIT:950
|
|
SCOREDIFF:340
|
|
|
|
|
|
#START
|
|
|
|
|
|
100000000000000000000000200000000000000000000000,
|
|
100000000000000000000000200000000000000000000000,
|
|
100000000000000000000000200000000000000000000000,
|
|
#BPMCHANGE 99
|
|
#SCROLL 0.75
|
|
#MEASURE 2/4
|
|
100000000000000000000000,
|
|
000000000000000000000000,
|
|
#MEASURE 4/4
|
|
#BPMCHANGE 178
|
|
300000000000000000000000300000000000000000000000,
|
|
600000000000000000000000800000000000000000000000,
|
|
300000000000000000000000000000000000000000000000,
|
|
100000000000000000000000100000000000000000000000,
|
|
300000000000000000000000000000000000000000000000,
|
|
100000000000000000000000100000000000000000000000,
|
|
300000000000000000000000000000000000000000000000,
|
|
100000000000000000000000100000000000000000000000,
|
|
500000000000000000000000000000000000800000000000,
|
|
000000000000000000000000000000000000000000000000,
|
|
100000000000000000000000100000000000000000000000,
|
|
100000000000000000000000000000000000000000000000,
|
|
100000000000000000000000100000000000000000000000,
|
|
100000000000000000000000000000000000000000000000,
|
|
100000000000100000000000100000000000000000000000,
|
|
100000000000000000000000100000000000000000000000,
|
|
700000000000000000000000000000000000800000000000,
|
|
000000000000000000000000000000000000000000000000,
|
|
100000000000000000000000100000000000000000000000,
|
|
100000000000000000000000000000000000000000000000,
|
|
100000000000000000000000100000000000000000000000,
|
|
100000000000000000000000000000000000000000000000,
|
|
100000000000100000000000100000000000000000000000,
|
|
100000000000000000000000100000000000000000000000,
|
|
100000000000000000000000100000000000000000000000,
|
|
700000000000000000000000800000000000000000000000,
|
|
100000000000000000000000000000000000000000000000,
|
|
100000000000000000000000200000000000000000000000,
|
|
100000000000000000000000000000000000000000000000,
|
|
100000000000000000000000200000000000000000000000,
|
|
100000000000000000000000100000000000000000000000,
|
|
100000000000100000000000100000000000100000000000,
|
|
9,
|
|
8,
|
|
#GOGOSTART
|
|
300000000000300000000000300000000000300000000000,
|
|
000000000000000000000000000000000000000000000000,
|
|
400000000000400000000000400000000000600000000000,
|
|
000000000000800000000000000000000000000000000000,
|
|
100000000000000000000000100000000000100000000000,
|
|
100000000000000000000000100000000000000000000000,
|
|
700000000000000000000000000000000000800000000000,
|
|
000000000000000000000000000000000000000000000000,
|
|
300000000000300000000000300000000000300000000000,
|
|
000000000000000000000000000000000000000000000000,
|
|
400000000000400000000000400000000000600000000000,
|
|
000000000000800000000000000000000000000000000000,
|
|
100000000000000000000000200000000000000000000000,
|
|
100000000000000000000000200000000000000000000000,
|
|
500000000000000000000000000000000000800000000000,
|
|
000000000000000000000000000000000000000000000000,
|
|
300000000000000000000000400000000000000000000000,
|
|
300000000000000000000000400000000000000000000000,
|
|
#GOGOEND
|
|
100000000000100000000000100000000000000000000000,
|
|
100000000000000000000000200000000000000000000000,
|
|
500000000000000000000000000000000000000000000008,
|
|
|
|
|
|
#END
|
|
|