forked from ESE/ESE
304 lines
11 KiB
Plaintext
304 lines
11 KiB
Plaintext
//TJADB Project
|
|
TITLE:Skip Step Island
|
|
TITLEJA:スキップ ステップ アイランド
|
|
SUBTITLE:--Nobuhiko Kashiwara feat. Omi Minami/Shima Shima Tora no Shimajiro
|
|
SUBTITLEJA:「しましまとらのしまじろう」より
|
|
BPM:144
|
|
WAVE:Skip Step Island.ogg
|
|
OFFSET:-2.602
|
|
DEMOSTART:54.240
|
|
|
|
COURSE:Oni
|
|
LEVEL:4
|
|
BALLOON:14
|
|
SCOREINIT:760
|
|
SCOREDIFF:160
|
|
|
|
|
|
#START
|
|
|
|
|
|
,
|
|
|
|
#GOGOSTART
|
|
100000100000200000200000100000100100100000200000,
|
|
100000200000000000100000000000200000200000000000,
|
|
100000100000200000200000100000100100100000200000,
|
|
100000200000000000100000000000200000200000200200,
|
|
100000100000100000200000100000100000100000200000,
|
|
100000000000100000000000100100200000100000100000,
|
|
100000000000100000000000100000100000000000300000,
|
|
000000100100100000100000100100100000100100100000,
|
|
100000000100100000200000100000100100100000000000,
|
|
400000000000100000100000100000100000000000100000,
|
|
000000100000100000100000100100200000100000000000,
|
|
|
|
#GOGOEND
|
|
100000100000100000200000100100200000100000000000,
|
|
100000100000100000200000100100200200100000000000,
|
|
100000100000000000000000200000200000000000000000,
|
|
100000000000200000000000100000100000200000000000,
|
|
100000200000000000100000000000100000200000000000,
|
|
100000000000100000000000100000100000000000100000,
|
|
300000300000000000000000400000000000400000000000,
|
|
100000100000200000000000100000100100100000000000,
|
|
100000200000000000100000000000100100100000000000,
|
|
100000000000100000100000000000100000100000100000,
|
|
000000100100200000100100200000100100200000000000,
|
|
100000000000200000100000100000200200200000000000,
|
|
100000000000200000100000100000200200200000000000,
|
|
100000100000200000000000100000100000200000000000,
|
|
100000100000200000200200100000100000200000100000,
|
|
000000100000100000000000300000000000000000100000,
|
|
000000100100100000000000300000000000000000100000,
|
|
000000100000100000000000100000100000000000300000,
|
|
000000100000100100100000100100100000100100100000,
|
|
|
|
#GOGOSTART
|
|
100000100000200000200000100000100100100000200000,
|
|
100000200000000000100000000000200000200000000000,
|
|
100000100000200000200000100000100100100000200000,
|
|
100000200000000000100000000000200000200000200200,
|
|
100000100000100000200000100000100000100000200000,
|
|
100000000000100000100000100100200000100000100000,
|
|
100000000000100000000000100000100000000000300000,
|
|
000000100100100000100000100100100000100100100000,
|
|
100000100000200000200000100000100100100000200000,
|
|
100000200000000000100000000000200000200000000000,
|
|
100000100000200000200000100000100100100000200000,
|
|
100000200000000000100000000000200000200000200200,
|
|
100000100000100000200000100000100000100000200000,
|
|
100000000000100000100000100100200000100000100000,
|
|
100000000000100000000000100000000000000000300000,
|
|
000000100000100000100000100100100000100100100000,
|
|
100000000100100000100000100000200200200000000000,
|
|
300000000000100000100000100000000000000000700000,
|
|
000000000000000000000000000000000000000000000000,
|
|
000000000000000000000000000000000000800000000000,
|
|
100000100000000000000000100000100000000000000000,
|
|
100000100000100000300000000000000000000000000000,
|
|
|
|
#GOGOEND
|
|
|
|
|
|
#END
|
|
|
|
|
|
COURSE:Hard
|
|
LEVEL:2
|
|
BALLOON:10
|
|
SCOREINIT:700
|
|
SCOREDIFF:370
|
|
|
|
|
|
#START
|
|
|
|
|
|
000000000000000000000000000000000000000000000000,
|
|
#GOGOSTART
|
|
100000000000200000000000100000100000200000000000,
|
|
100000200000000000100000000000000000000000000000,
|
|
100000000000200000000000100000100000200000000000,
|
|
100000200000000000100000000000000000000000000000,
|
|
100000000000100000000000100000000000000000000000,
|
|
100000000000100000200000000000000000000000000000,
|
|
000000000000100000000000100000000000000000500000,
|
|
000000000000000000800000000000000000000000000000,
|
|
100000000000000000000000100000200000200000000000,
|
|
000000000000100000000000100000000000000000500000,
|
|
000000000000000000000000000000800000000000000000,
|
|
#GOGOEND
|
|
000000000000000000000000000000000000000000000000,
|
|
000000000000000000000000000000000000000000000000,
|
|
100000100000000000000000100000100000000000000000,
|
|
100000000000100000000000200000200000200000000000,
|
|
100000200000000000100000000000000000000000000000,
|
|
100000000000100000000000200000000000000000000000,
|
|
300000300000000000000000000000000000000000000000,
|
|
100000000000100000000000200000200000200000000000,
|
|
100000200000000000100000000000200200200000000000,
|
|
100000000000100000000000100000100000100000100000,
|
|
000000000000000000000000000000000000000000000000,
|
|
100000000000200000000000200000000000200000000000,
|
|
100000000000200000000000200000000000200000000000,
|
|
100000000000200000000000100000000000200000000000,
|
|
100000000000000000000000000000000000000000100000,
|
|
000000100000100000000000300000000000000000100000,
|
|
000000100000100000000000300000000000000000100000,
|
|
000000100000100000000000100000000000000000500000,
|
|
000000000000000000800000000000000000000000000000,
|
|
#GOGOSTART
|
|
100000000000200000000000100000100000200000000000,
|
|
100000200000000000100000000000000000000000000000,
|
|
100000000000200000000000100000100000200000000000,
|
|
100000200000000000100000000000000000000000000000,
|
|
100000000000100000000000200000000000200000000000,
|
|
100000000000100000200000000000000000200000000000,
|
|
000000000000100000000000100000000000000000500000,
|
|
000000000000000000800000000000000000000000000000,
|
|
100000000000200000000000100000100100100000000000,
|
|
100000200000000000100000000000000000000000000000,
|
|
100000000000200000000000100000100100100000000000,
|
|
100000200000000000100000000000000000000000000000,
|
|
100000000000100000000000100000000000000000000000,
|
|
100000000000100000200000000000000000200000000000,
|
|
000000000000100000000000100000000000000000500000,
|
|
000000000000000000800000000000000000000000000000,
|
|
100000000000000000000000100000200000200000000000,
|
|
000000000000100000000000100000000000000000700000,
|
|
000000000000000000000000000000000000000000000000,
|
|
000000100000000000000000000000000000000000000000,
|
|
000000000000000000800000000000000000000000000000,
|
|
100000100000000000000000100000100000000000000000,
|
|
100000100000100000100000000000000000000000000000,
|
|
#GOGOEND
|
|
|
|
|
|
#END
|
|
|
|
|
|
COURSE:Normal
|
|
LEVEL:1
|
|
BALLOON:8
|
|
SCOREINIT:1300
|
|
SCOREDIFF:420
|
|
|
|
|
|
#START
|
|
|
|
|
|
,
|
|
|
|
#GOGOSTART
|
|
#SCROLL 0.8
|
|
100000000000100000000000100000000000000000000000,
|
|
100000000000000000100000000000000000000000000000,
|
|
100000000000100000000000100000000000000000000000,
|
|
100000000000000000100000000000000000000000000000,
|
|
100000000000000000000000100000000000000000000000,
|
|
100000000000000000000000000000000000000000000000,
|
|
000000000000100000000000100000000000000000500000,
|
|
000000000000000000800000000000000000000000000000,
|
|
100000000000000000000000100000000000100000000000,
|
|
000000000000100000000000100000000000000000500000,
|
|
000000000000000000000000000000800000000000000000,
|
|
#GOGOEND
|
|
000000000000000000000000000000000000000000000000,
|
|
000000000000000000000000000000000000000000000000,
|
|
000000000000000000000000000000000000000000000000,
|
|
100000000000100000000000100000000000000000000000,
|
|
100000000000000000100000000000000000000000000000,
|
|
100000000000100000000000100000000000000000000000,
|
|
300000000000000000000000000000000000000000000000,
|
|
100000000000100000000000100000000000000000000000,
|
|
100000000000000000100000000000000000000000000000,
|
|
100000000000000000000000100000000000000000100000,
|
|
000000000000000000000000000000000000000000000000,
|
|
100000000000000000000000200000000000000000000000,
|
|
100000000000000000000000200000000000000000000000,
|
|
100000000000000000000000100000000000000000100000,
|
|
000000000000000000000000000000000000000000100000,
|
|
000000000000100000000000300000000000000000100000,
|
|
000000000000100000000000300000000000000000100000,
|
|
000000000000100000000000100000000000000000500000,
|
|
000000000000000000800000000000000000000000000000,
|
|
#GOGOSTART
|
|
100000000000100000000000100000000000100000000000,
|
|
100000000000000000100000000000000000000000000000,
|
|
100000000000100000000000100000000000100000000000,
|
|
100000000000000000100000000000000000000000000000,
|
|
100000000000000000000000100000000000000000000000,
|
|
100000000000000000000000000000000000000000000000,
|
|
000000000000100000000000100000000000000000500000,
|
|
000000000000000000800000000000000000000000000000,
|
|
100000000000100000000000200000000000200000000000,
|
|
100000000000000000100000000000000000000000000000,
|
|
100000000000100000000000200000000000200000000000,
|
|
100000000000000000100000000000000000000000000000,
|
|
100000000000000000000000100000000000000000000000,
|
|
100000000000000000000000000000000000000000000000,
|
|
000000000000100000000000100000000000000000500000,
|
|
000000000000000000800000000000000000000000000000,
|
|
100000000000000000000000100000000000100000000000,
|
|
000000000000100000000000100000000000000000900000,
|
|
,
|
|
08,
|
|
100000000000000000000000100000000000000000000000,
|
|
300000000000300000000000000000000000000000000000,
|
|
#GOGOEND
|
|
|
|
|
|
#END
|
|
|
|
|
|
COURSE:Easy
|
|
LEVEL:1
|
|
SCOREINIT:1460
|
|
SCOREDIFF:1000
|
|
|
|
|
|
#START
|
|
|
|
|
|
,
|
|
|
|
#GOGOSTART
|
|
#SCROLL 0.8
|
|
100000000000000000000000100000000000000000000000,
|
|
100000000000000000000000000000000000000000000000,
|
|
100000000000000000000000100000000000000000000000,
|
|
100000000000000000000000000000000000000000000000,
|
|
100000000000000000000000000000000000000000000000,
|
|
100000000000000000000000000000000000000000000000,
|
|
000000000000100000000000100000000000000000500000,
|
|
000000000000000000800000000000000000000000000000,
|
|
000000000000000000000000000000000000000000000000,
|
|
000000000000100000000000100000000000000000500000,
|
|
000000000000000000000000000000800000000000000000,
|
|
#GOGOEND
|
|
000000000000000000000000000000000000000000000000,
|
|
000000000000000000000000000000000000000000000000,
|
|
000000000000000000000000000000000000000000000000,
|
|
100000000000000000000000100000000000000000000000,
|
|
100000000000000000000000000000000000000000000000,
|
|
100000000000000000000000100000000000000000000000,
|
|
300000000000000000000000000000000000000000000000,
|
|
100000000000000000000000100000000000000000000000,
|
|
100000000000000000000000000000000000000000000000,
|
|
100000000000000000000000100000000000000000500000,
|
|
000000800000000000000000000000000000000000000000,
|
|
100000000000000000000000000000000000000000000000,
|
|
100000000000000000000000000000000000000000000000,
|
|
200000000000000000000000200000000000000000000000,
|
|
200000000000000000000000000000000000000000000000,
|
|
000000000000000000000000300000000000000000000000,
|
|
000000000000000000000000300000000000000000000000,
|
|
000000000000000000000000000000000000000000500000,
|
|
000000000000000000800000000000000000000000000000,
|
|
#GOGOSTART
|
|
100000000000000000000000100000000000000000000000,
|
|
100000000000000000000000000000000000000000000000,
|
|
100000000000000000000000100000000000000000000000,
|
|
100000000000000000000000000000000000000000000000,
|
|
100000000000000000000000100000000000000000000000,
|
|
100000000000000000000000000000000000000000000000,
|
|
000000000000100000000000100000000000000000500000,
|
|
000000000000000000800000000000000000000000000000,
|
|
100000000000000000000000100000000000000000000000,
|
|
100000000000000000000000000000000000000000000000,
|
|
100000000000000000000000100000000000000000000000,
|
|
100000000000000000000000000000000000000000000000,
|
|
100000000000000000000000100000000000000000000000,
|
|
100000000000000000000000000000000000000000000000,
|
|
000000000000100000000000100000000000000000500000,
|
|
000000000000000000800000000000000000000000000000,
|
|
100000000000000000000000100000000000000000000000,
|
|
000000000000100000000000100000000000000000500000,
|
|
000000000000000000000000000000000000000000800000,
|
|
|
|
#GOGOEND
|
|
|
|
|
|
#END
|
|
|