forked from ESE/ESE
314 lines
4.0 KiB
Plaintext
314 lines
4.0 KiB
Plaintext
//TJADB Project
|
|
TITLE:Start Line!
|
|
TITLEJA:スタートライン!
|
|
SUBTITLE:--AIKATSU☆STARS!/Aikatsu Stars!
|
|
SUBTITLEJA:「アイカツスターズ!」より
|
|
BPM:158
|
|
WAVE:Start Line!.ogg
|
|
OFFSET:-1.833
|
|
DEMOSTART:56.516
|
|
|
|
COURSE:Oni
|
|
LEVEL:6
|
|
BALLOON:8,10,8
|
|
SCOREINIT:890
|
|
SCOREDIFF:200
|
|
|
|
|
|
#START
|
|
|
|
|
|
10000002,
|
|
02000220,
|
|
10220022,
|
|
00000220,
|
|
10220403,
|
|
03030220,
|
|
3347,
|
|
0000800011104000,
|
|
10201021,
|
|
01221210,
|
|
11201021,
|
|
01201022,
|
|
10210121,
|
|
01210121,
|
|
01220125,
|
|
000000000000000008000000000000100000200000000000,
|
|
10210121,
|
|
01220121,
|
|
000000200000100000200000500000000000000000000008,
|
|
0004,
|
|
1010200011102010,
|
|
01210120,
|
|
1010200011102050,
|
|
000000000000000008000000000000100000200000000000,
|
|
1010200011102010,
|
|
01210120,
|
|
500000000000000000000000000000000000000000000008,
|
|
0000000000002220,
|
|
10012020,
|
|
1001001020002011,
|
|
10012020,
|
|
1001001020002011,
|
|
10012020,
|
|
1001001022201020,
|
|
0010200020222020,
|
|
1110201110104000,
|
|
|
|
#GOGOSTART
|
|
1020112010222010,
|
|
000000500000000000000008000000100000200200200000,
|
|
1020101110102050,
|
|
000000000000000008000000000000100000200200200000,
|
|
1020112010222010,
|
|
0020112000102220,
|
|
1110222011107000,
|
|
08,
|
|
1020112010222010,
|
|
000000500000000000000008000000100000200200200000,
|
|
1020112010222050,
|
|
000000000000000008000000000000100000200200200000,
|
|
1020112010222010,
|
|
0020112000102220,
|
|
1110222011107000,
|
|
0000800011104000,
|
|
1110200010002010,
|
|
0010222010201000,
|
|
1110200011102010,
|
|
0010200020202220,
|
|
|
|
#GOGOEND
|
|
3,
|
|
|
|
|
|
#END
|
|
|
|
|
|
COURSE:Hard
|
|
LEVEL:3
|
|
BALLOON:6,6
|
|
SCOREINIT:880
|
|
SCOREDIFF:285
|
|
|
|
|
|
#START
|
|
|
|
|
|
10000002,
|
|
02000000,
|
|
10000022,
|
|
,
|
|
10000003,
|
|
03030000,
|
|
3344,
|
|
0034,
|
|
10201022,
|
|
02201020,
|
|
10201022,
|
|
02201000,
|
|
10220000,
|
|
10220000,
|
|
10220202,
|
|
2,
|
|
10220220,
|
|
10220220,
|
|
500000000000000000000000000000000000000000000008,
|
|
0004,
|
|
10201120,
|
|
10221020,
|
|
10201120,
|
|
10221020,
|
|
10201120,
|
|
10221020,
|
|
500000000000000000000000000000000000000000000008,
|
|
,
|
|
10012000,
|
|
1001001020000000,
|
|
10012000,
|
|
1001001020000000,
|
|
10012000,
|
|
1001001020000000,
|
|
10000404,
|
|
34040340,
|
|
|
|
#GOGOSTART
|
|
12121212,
|
|
000000500000000000000008000000100000200000000000,
|
|
10120125,
|
|
000000000000000000000008000000100000200000000000,
|
|
10120121,
|
|
01020120,
|
|
3347,
|
|
0800,
|
|
12121212,
|
|
000000500000000000000008000000100000200000000000,
|
|
10120125,
|
|
000000000000000000000008000000100000200000000000,
|
|
10120121,
|
|
01020120,
|
|
30334070,
|
|
0834,
|
|
10201022,
|
|
02201020,
|
|
11201022,
|
|
02201122,
|
|
|
|
#GOGOEND
|
|
3,
|
|
|
|
|
|
#END
|
|
|
|
|
|
COURSE:Normal
|
|
LEVEL:2
|
|
BALLOON:14,6,16
|
|
SCOREINIT:1270
|
|
SCOREDIFF:885
|
|
|
|
|
|
#START
|
|
|
|
|
|
5,
|
|
000000000000000008000000000000000000000000000000,
|
|
,
|
|
,
|
|
5,
|
|
000000000000000008000000000000000000000000000000,
|
|
3336,
|
|
08009000,
|
|
,
|
|
0000,
|
|
8,
|
|
,
|
|
1,
|
|
22,
|
|
1,
|
|
1,
|
|
1,
|
|
22,
|
|
500000000000000000000000000000000000000000000008,
|
|
,
|
|
1100,
|
|
1100,
|
|
1100,
|
|
1,
|
|
1100,
|
|
1100,
|
|
500000000000000000000000000000000000000000000008,
|
|
,
|
|
12,
|
|
1,
|
|
12,
|
|
1,
|
|
12,
|
|
1120,
|
|
1,
|
|
3,
|
|
|
|
#GOGOSTART
|
|
3333,
|
|
3,
|
|
3336,
|
|
000000000000000008000000000000000000000000000000,
|
|
3333,
|
|
3,
|
|
3337,
|
|
08,
|
|
3344,
|
|
3,
|
|
3336,
|
|
000000000000000008000000000000000000000000000000,
|
|
3344,
|
|
3,
|
|
3336,
|
|
000008000000000000000000900000000000000000000000,
|
|
,
|
|
0900,
|
|
8,
|
|
500000000000000000000000000000000008000000000000,
|
|
|
|
#GOGOEND
|
|
3,
|
|
|
|
|
|
#END
|
|
|
|
|
|
COURSE:Easy
|
|
LEVEL:2
|
|
BALLOON:7,8
|
|
SCOREINIT:1880
|
|
SCOREDIFF:2200
|
|
|
|
|
|
#START
|
|
|
|
|
|
5,
|
|
000000000000000008000000000000000000000000000000,
|
|
,
|
|
,
|
|
5,
|
|
000000000000000008000000000000000000000000000000,
|
|
6,
|
|
000008000000000000000000900000000000000000000000,
|
|
,
|
|
,
|
|
8,
|
|
,
|
|
1,
|
|
1,
|
|
11,
|
|
1,
|
|
1,
|
|
11,
|
|
500000000000000000000000000000000000000000000008,
|
|
,
|
|
1,
|
|
1,
|
|
11,
|
|
1,
|
|
11,
|
|
11,
|
|
500000000000000000000000000000000000000000000008,
|
|
,
|
|
1,
|
|
2,
|
|
1,
|
|
2,
|
|
1,
|
|
2,
|
|
1,
|
|
3,
|
|
|
|
#GOGOSTART
|
|
33,
|
|
3,
|
|
6,
|
|
000000000000000008000000000000000000000000000000,
|
|
33,
|
|
3,
|
|
6,
|
|
000000000000000008000000000000000000000000000000,
|
|
33,
|
|
3,
|
|
6,
|
|
000000000000000008000000000000000000000000000000,
|
|
33,
|
|
3,
|
|
6,
|
|
000008000000000000000000900000000000000000000000,
|
|
,
|
|
0000,
|
|
8,
|
|
500000000000000000000000000008000000000000000000,
|
|
|
|
#GOGOEND
|
|
3,
|
|
|
|
|
|
#END
|
|
|