forked from ESE/ESE
267 lines
9.7 KiB
Plaintext
267 lines
9.7 KiB
Plaintext
//TJADB Project
|
|
TITLE:Te to Te Tsunaide Heart mo Link‼
|
|
TITLEJA:手と手つないでハートもリンク!!
|
|
SUBTITLE:--Kanako Miyamoto feat. Young Fresh/Yes! Pretty Cure 5 GoGo!
|
|
BPM:124
|
|
WAVE:Te to Te Tsunaide Heart mo Link!!.ogg
|
|
OFFSET:-3.186
|
|
DEMOSTART:62.190
|
|
|
|
COURSE:Oni
|
|
LEVEL:3
|
|
BALLOON:10
|
|
SCOREINIT:790
|
|
SCOREDIFF:210
|
|
|
|
|
|
#START
|
|
|
|
|
|
300000000000300000000000400000000000400000000000,
|
|
300000300000300000000000000000300000400000000000,
|
|
300000000000300000000000400000000000400000000000,
|
|
300000300000300000000000000000300000400000000000,
|
|
100000200000100000200000100000200000100000200000,
|
|
100000200000100000200000100000200000200000000000,
|
|
100000200000100000000000100000200000100000000000,
|
|
100000200000100000200000100000200000200000000000,
|
|
100000200000100000200000100000200000100000200000,
|
|
100000200000100000200000100000200000200000000000,
|
|
100000100000200000100000000000100000200000200000,
|
|
300000000000300000000000400000000000400000000000,
|
|
300000300000300000000000000000300000400000000000,
|
|
300000000000300000000000400000000000400000000000,
|
|
300000300000300000000000000000300000400000000000,
|
|
100000100000200000200000100000000000200000200000,
|
|
100000100000200000200000100000000000200000000000,
|
|
100000200000100000000000100000200000100000000000,
|
|
100000200000100000200000100000000000000000000000,
|
|
100000100000200000200000100000000000200000200000,
|
|
100000100000200000200000100000000000000000000000,
|
|
100000100000200000100000200000000000100000500000,
|
|
000000000000000000000000000000000008000000000000,
|
|
100000000000100000100000200000000000200000000000,
|
|
100000100000100000100000100000000000100000000000,
|
|
100000000000100000200000100000100000200000500000,
|
|
000000000000000000000000000000000008000000000000,
|
|
200000100000200000100000100100100000200000000000,
|
|
#MEASURE 2/4
|
|
300000000000300000000000,
|
|
#MEASURE 4/4
|
|
100000100100100000100000100000100100100000700000,
|
|
000000000000000000000000000000000000800000000000,
|
|
|
|
#GOGOSTART
|
|
100000200000100000200000100000200000100000200000,
|
|
100000200000100000200000100000200200200000200000,
|
|
100000200000200000100000000000200000100000000000,
|
|
100000200000200000100000000000200000100000000000,
|
|
100000200000100000200000100000200000100000200000,
|
|
100000200000100000200000100000200200200000200000,
|
|
100000200000200000100000000000000000100000500000,
|
|
000000000000000000000000000000000008000000000000,
|
|
100000000000200000000000200200200000200000200000,
|
|
100000000000200000000000200200200000200000200000,
|
|
100100100000100100100000100100100000100100100000,
|
|
|
|
#GOGOEND
|
|
300000000000300000000000400000000000400000000000,
|
|
300000300000300000000000000000300000400000000000,
|
|
300000000000300000000000300000300000300000400000,
|
|
|
|
|
|
#END
|
|
|
|
|
|
COURSE:Hard
|
|
LEVEL:3
|
|
BALLOON:8
|
|
SCOREINIT:710
|
|
SCOREDIFF:200
|
|
|
|
|
|
#START
|
|
|
|
|
|
300000000000300000000000400000000000400000000000,
|
|
300000300000300000000000000000300000400000000000,
|
|
300000000000300000000000400000000000400000000000,
|
|
300000300000300000000000000000300000400000000000,
|
|
100000200000100000000000100000200000100000000000,
|
|
100000200000100000200000000000200000100000000000,
|
|
100000200000100000200000000000200000100000000000,
|
|
100000200000100000200000000000200000100000000000,
|
|
100000200000100000000000100000200000100000000000,
|
|
100000200000100000200000000000200000100000000000,
|
|
100000200000100000200000000000200000100000000000,
|
|
300000000000300000000000400000000000400000000000,
|
|
300000300000300000000000000000300000400000000000,
|
|
300000000000300000000000400000000000400000000000,
|
|
300000300000300000000000000000300000400000000000,
|
|
100000200000100000000000100000200000100000000000,
|
|
100000200000100000200000100000000000000000000000,
|
|
100000200000100000000000100000200000100000000000,
|
|
100000200000100000200000100000000000000000000000,
|
|
100000200000100000000000100000200000100000000000,
|
|
100000200000100000200000100000000000100000000000,
|
|
100000100000100000000000200000200000200000500000,
|
|
000000000000000000000000000000800000000000000000,
|
|
100000000000100000100000200000000000200000000000,
|
|
100000000000100000100000100000000000100000000000,
|
|
100000000000100000100000200000200000000000500000,
|
|
000000000000000000000000800000000000000000000000,
|
|
200000100000200000000000200000100000200000000000,
|
|
#MEASURE 2/4
|
|
300000000000300000000000,
|
|
#MEASURE 4/4
|
|
200000100000200000000000200000100000200000700000,
|
|
000000000000000000000000000000800000000000000000,
|
|
#GOGOSTART
|
|
100000200000100000000000100000200000100000000000,
|
|
100000200000100000200000000000200000100000000000,
|
|
100000200000100000200000000000200000100000000000,
|
|
100000200000100000200000000000200000100000000000,
|
|
100000200000100000000000100000200000100000000000,
|
|
100000200000100000200000000000200000100000000000,
|
|
100000200000100000200000000000200000100000500000,
|
|
000000000000000000000000000000800000000000000000,
|
|
100000000000100000000000200200200000200000000000,
|
|
100000000000100000000000200200200000200000000000,
|
|
100100100000100000000000100100100000100000000000,
|
|
#GOGOEND
|
|
300000000000300000000000400000000000400000000000,
|
|
300000300000300000000000000000300000400000000000,
|
|
300000000000300000000000300000300000300000400000,
|
|
|
|
|
|
#END
|
|
|
|
|
|
COURSE:Normal
|
|
LEVEL:2
|
|
BALLOON:8
|
|
SCOREINIT:780
|
|
SCOREDIFF:270
|
|
|
|
|
|
#START
|
|
|
|
|
|
300000000000300000000000400000000000400000000000,
|
|
300000000000300000000000000000000000300000000000,
|
|
300000000000300000000000400000000000400000000000,
|
|
300000000000300000000000000000000000300000000000,
|
|
100000000000100000000000100000000000000000000000,
|
|
100000000000100000000000100000000000000000000000,
|
|
200000000000200000000000200000000000000000000000,
|
|
200000000000200000000000200000000000000000000000,
|
|
100000000000100000000000100000000000000000000000,
|
|
100000000000100000000000100000000000000000000000,
|
|
200000000000000000000000200000000000000000000000,
|
|
300000000000300000000000400000000000400000000000,
|
|
300000000000300000000000000000000000300000000000,
|
|
300000000000300000000000400000000000400000000000,
|
|
300000000000300000000000000000000000300000000000,
|
|
100000000000100000000000100000000000200000000000,
|
|
100000000000100000000000100000000000000000000000,
|
|
100000000000100000000000100000000000000000000000,
|
|
100000000000100000000000100000000000000000000000,
|
|
100000000000100000000000100000000000200000000000,
|
|
100000000000100000000000100000000000000000000000,
|
|
100000000000100000000000200000000000200000000000,
|
|
500000000000000000000000800000000000000000000000,
|
|
100000000000000000000000100000000000200000000000,
|
|
100000000000000000000000100000000000000000000000,
|
|
100000000000100000000000200000000000200000000000,
|
|
500000000000000000000000800000000000000000000000,
|
|
200000000000200000000000100000000000100000000000,
|
|
#MEASURE 2/4
|
|
300000000000300000000000,
|
|
#MEASURE 4/4
|
|
100000000000000000000000100000000000700000000000,
|
|
000000000000000000000000000000800000000000000000,
|
|
#GOGOSTART
|
|
100000000000100000000000200000000000200000000000,
|
|
100000000000100000000000100000000000000000000000,
|
|
100000000000100000000000200000000000200000000000,
|
|
100000000000000000000000100000000000000000000000,
|
|
100000000000100000000000200000000000200000000000,
|
|
100000000000100000000000100000000000000000000000,
|
|
300000000000000000000000300000000000000000000000,
|
|
500000000000000000000000000000800000000000000000,
|
|
100000000000200000000000100000000000200000000000,
|
|
100000000000200000000000100000000000200000000000,
|
|
500000000000000000000000000000800000000000000000,
|
|
#GOGOEND
|
|
300000000000300000000000400000000000400000000000,
|
|
300000000000300000000000000000000000300000000000,
|
|
300000000000300000000000300000000000300000300000,
|
|
|
|
|
|
#END
|
|
|
|
|
|
COURSE:Easy
|
|
LEVEL:3
|
|
BALLOON:8
|
|
SCOREINIT:850
|
|
SCOREDIFF:350
|
|
|
|
|
|
#START
|
|
|
|
|
|
300000000000000000000000400000000000000000000000,
|
|
300000000000000000000000000000000000300000000000,
|
|
300000000000000000000000400000000000000000000000,
|
|
300000000000000000000000000000000000300000000000,
|
|
100000000000000000000000100000000000000000000000,
|
|
100000000000100000000000100000000000000000000000,
|
|
200000000000000000000000200000000000000000000000,
|
|
200000000000200000000000200000000000000000000000,
|
|
100000000000000000000000100000000000000000000000,
|
|
100000000000100000000000100000000000000000000000,
|
|
200000000000000000000000200000000000000000000000,
|
|
300000000000000000000000400000000000000000000000,
|
|
300000000000000000000000000000000000300000000000,
|
|
300000000000000000000000400000000000000000000000,
|
|
300000000000000000000000000000000000300000000000,
|
|
100000000000100000000000100000000000000000000000,
|
|
100000000000100000000000100000000000000000000000,
|
|
100000000000100000000000100000000000000000000000,
|
|
100000000000100000000000100000000000000000000000,
|
|
100000000000100000000000100000000000000000000000,
|
|
100000000000100000000000100000000000000000000000,
|
|
100000000000100000000000100000000000100000000000,
|
|
500000000000000000000000800000000000000000000000,
|
|
100000000000000000000000100000000000100000000000,
|
|
100000000000000000000000000000000000000000000000,
|
|
100000000000100000000000100000000000100000000000,
|
|
500000000000000000000000800000000000000000000000,
|
|
200000000000000000000000100000000000000000000000,
|
|
#MEASURE 2/4
|
|
300000000000000000000000,
|
|
#MEASURE 4/4
|
|
100000000000000000000000100000000000700000000000,
|
|
000000000000000000000000800000000000000000000000,
|
|
#GOGOSTART
|
|
100000000000100000000000100000000000100000000000,
|
|
100000000000000000000000100000000000000000000000,
|
|
100000000000000000000000100000000000000000000000,
|
|
100000000000100000000000100000000000000000000000,
|
|
100000000000100000000000100000000000100000000000,
|
|
100000000000000000000000100000000000000000000000,
|
|
100000000000100000000000100000000000100000000000,
|
|
500000000000000000000000800000000000000000000000,
|
|
100000000000000000000000200000000000000000000000,
|
|
100000000000000000000000200000000000000000000000,
|
|
500000000000000000000000800000000000000000000000,
|
|
#GOGOEND
|
|
300000000000000000000000400000000000000000000000,
|
|
300000000000000000000000000000000000300000000000,
|
|
300000000000000000000000300000000000300000000000,
|
|
|
|
|
|
#END
|
|
|