Files
2023-06-15 19:15:39 -05:00

223 lines
8.2 KiB
Plaintext

//TJADB Project
TITLE:Tensai Bakabon
TITLEJA:天才バカボン
SUBTITLE:--Idol Four/Tensai Bakabon
BPM:133
WAVE:Tensai Bakabon.ogg
OFFSET:-3.915
DEMOSTART:54.441
COURSE:Oni
LEVEL:5
BALLOON:11
SCOREINIT:830
SCOREDIFF:210
#START
300000000000000000000000000000000000000000000000,
000000200200000200200000200000100100100100100100,
100000200200000200200000200000300000000000000000,
100000000000200000200000100000000000200000000000,
100000100000100000100000100000000000200000000000,
100000000000000000000000100000000000100000000000,
500000000000000000000000000000000008000000000000,
000000100100100000100000100000100100100000100000,
200200000000200000000000100000100100100000000000,
100000100000100000000000100000000000100000100000,
000000100100100000200000100100100000200000000000,
100000100000100000000000100000000000100000100000,
000000100100100000200000100100100000200000000000,
100000000000100000000000200000200000100000000000,
200000200000100000000000100000200200200000200000,
100000000000100000000000100000000000000000100000,
100000000000000000100000100000100100100000100100,
100000100000100000100000100000100000100000100000,
300000000000300000000000000000200200200000200000,
000000200200200000200000100000200200200000200000,
100000200200000200200000200000100100100100100100,
100000200200000200200000200000100000000000000000,
100000000000200000200000100000000000200000000000,
100000100000100000100000100000000000200000000000,
100000000000000000000000100000000000100000000000,
500000000000000000000000000000000008000000000000,
000000100100100000100000100000100100100000100000,
200200000000200000000000100000100100100000000000,
100000100000100000000000100000000000100000100000,
000000100100100000200000100100100000200000000000,
100000100000100000000000100000000000100000100000,
000000100100100000200000100100100000200000000000,
100000000000100000000000200000200000100000000000,
200000200000100000000000100000200200200000200000,
100000000000100000000000100000000000000000100000,
100000000000000000100000100000100100100000100100,
100000100000100000100000100000100000100000200000,
300000000000300000000000000000000000700000000000,
000000000000000000000000000000000000000000800000,
#END
COURSE:Hard
LEVEL:3
BALLOON:12
SCOREINIT:1170
SCOREDIFF:340
#START
300000000000000000000000000000000000000000000000,
000000200200000200200000200000000000100000000000,
000000200200000200200000200000100000000000000000,
100000000000200000200000100000000000200000000000,
100000100000100000100000100000000000200000000000,
100000000000000000000000100000000000100000000000,
500000000000000000000000000000000800000000000000,
000000000000200000200000000000000000200000000000,
200200000000200000000000100000000000100000000000,
100000100000100000000000100000000000100000100000,
000000000000200000000000100100100000200000000000,
100000100000100000000000100000000000100000100000,
000000200000200000000000100100100000200000000000,
100000000000100000000000200000200000100000000000,
200000200000100000000000100000200200200000200000,
100000000000100000000000100000000000000000100000,
100000000000000000100000100000000000200000000000,
500000000000000000000800000000000000000000200000,
300000000000300000000000200200200000200000000000,
000000000000200000200000000000000000200000000000,
000000200200000200200000200000000000100000000000,
000000200200000200200000200000100000000000000000,
100000000000200000200000100000000000200000000000,
100000100000100000100000100000000000200000000000,
100000000000000000000000100000000000100000000000,
500000000000000000000000000000000800000000000000,
000000000000200000200000000000000000200000000000,
200200000000200000000000100000000000100000000000,
100000100000100000000000100000000000100000100000,
000000000000200000000000100100100000200000000000,
100000100000100000000000100000000000100000100000,
000000200000200000000000100100100000200000000000,
100000000000100000000000200000200000100000000000,
200000200000100000000000100000200200200000200000,
100000000000100000000000100000000000000000100000,
100000000000000000100000100000000000200000000000,
500000000000000000000800000000000000000000200000,
300000000000300000000000000000000000700000000000,
0008,
#END
COURSE:Normal
LEVEL:1
SCOREINIT:2150
SCOREDIFF:1210
#START
300000000000000000000000000000000000000000000000,
000000000000000000000000000000000000200000000000,
000000000000000000000000200000000000000000000000,
100000000000000000000000100000000000000000000000,
100000000000100000000000100000000000000000000000,
100000000000000000000000000000000000000000500000,
000000000000000000000000000000800000000000000000,
000000000000000000000000000000000000000000000000,
200000000000200000000000000000000000000000000000,
100000100000100000000000100000000000100000100000,
000000000000000000000000000000000000000000000000,
100000100000100000000000100000000000100000100000,
000000000000000000000000000000000000000000000000,
100000000000100000000000100000100000100000000000,
100000100000100000000000100000000000000000000000,
100000000000000000000000100000000000000000000000,
100000000000000000100000100000000000000000000000,
500000000000000000800000000000000000000000000000,
300000000000300000000000000000000000000000000000,
000000000000000000000000200000000000200000000000,
000000000000000000000000200000000000000000000000,
000000000000000000000000200000000000000000000000,
100000000000000000000000100000000000000000000000,
100000000000100000000000100000000000000000000000,
100000000000000000000000000000000000000000500000,
000000000000000000000000000000800000000000000000,
000000000000000000000000000000000000000000000000,
200000000000200000000000000000000000000000000000,
100000100000100000000000100000000000100000100000,
000000000000000000000000000000000000000000000000,
100000100000100000000000100000000000100000100000,
000000000000000000000000000000000000000000000000,
100000000000100000000000100000100000100000000000,
100000100000100000000000100000000000000000000000,
100000000000000000000000100000000000000000000000,
100000000000000000100000100000000000000000000000,
500000000000000000800000000000000000000000000000,
300000000000300000000000000000000000500000000000,
000000000000000000000000000000800000000000000000,
#END
COURSE:Easy
LEVEL:2
SCOREINIT:2070
SCOREDIFF:1450
#START
300000000000000000000000000000000000000000000000,
000000000000000000000000100000000000000000000000,
000000000000000000000000100000000000000000000000,
100000000000000000000000100000000000000000000000,
100000000000100000000000100000000000000000000000,
100000000000000000000000000000000000000000000000,
500000000000000000000000000000800000000000000000,
000000000000000000000000000000000000000000000000,
300000000000000000000000000000000000000000000000,
100000100000100000000000100000000000000000500000,
000000000000000000800000000000000000000000000000,
100000100000100000000000100000000000000000500000,
000000000000000000800000000000000000000000000000,
100000000000100000000000100000100000100000000000,
100000100000100000000000100000000000000000000000,
100000000000000000000000100000000000000000000000,
100000000000000000000000100000000000000000000000,
500000000000000000800000000000000000000000000000,
300000000000300000000000000000000000000000000000,
000000000000000000000000000000000000000000000000,
000000000000000000000000200000000000000000000000,
000000000000000000000000200000000000000000000000,
100000000000000000000000100000000000000000000000,
100000000000100000000000100000000000000000000000,
100000000000000000000000000000000000000000000000,
500000000000000000000000000000800000000000000000,
000000000000000000000000000000000000000000000000,
300000000000000000000000000000000000000000000000,
100000100000100000000000100000000000000000500000,
000000000000000000800000000000000000000000000000,
100000100000100000000000100000000000000000500000,
000000000000000000800000000000000000000000000000,
100000000000100000000000100000100000100000000000,
100000100000100000000000100000000000000000000000,
100000000000000000000000100000000000000000000000,
100000000000000000000000100000000000000000000000,
500000000000000000800000000000000000000000000000,
300000000000300000000000000000000000500000000000,
000000000000000000000000000000800000000000000000,
#END