Files
2023-06-15 19:15:39 -05:00

616 lines
11 KiB
Plaintext

//TJADB Project
TITLE:Tomare!
TITLEJA:止マレ!
SUBTITLE:--Aya Hirano/The Melancholy of Haruhi Suzumiya
SUBTITLEJA:「涼宮ハルヒの憂鬱」より
BPM:183
WAVE:Tomare!.ogg
OFFSET:-1.458
DEMOSTART:40.135
COURSE:Edit
LEVEL:8
STYLE:Double
BALLOON:8
SCOREINIT:1240
SCOREDIFF:330
#START P1
2022200000002000,
#MEASURE 2/4
1110,
#MEASURE 4/4
11201010,
11201010,
1110000010100030,
,
1011200010102000,
11201210,
1011200010102000,
11201210,
1011200010102000,
11201210,
3000111000001020,
0000112001020000,
00111201,
01121020,
00121201,
02103003,
00121201,
02121020,
3000001000111000,
1020000030003000,
30201120,
10210120,
00200020,
1110200011102000,
02202202,
20222020,
7008,
30033040,
#GOGOSTART
1000001000002000,
1100110011001100,
0022100022100010,
002020220,
1022100022100000,
0000020200020000,
1120000010102020,
1010103000222000,
0022100022100010,
02020202,
10010020,
11111110,
10202112,
00201120,
1000100011200022,
1000111000002000,
2020200002020000,
2000111000303000,
#GOGOEND
#END
#START P2
0000002022200020,
#MEASURE 2/4
01010000,
#MEASURE 4/4
10120202,
10120220,
0000111001001030,
,
00111201,
01121020,
00121201,
02121010,
00121201,
02121020,
3000001000111000,
1120000010201000,
1011200010102000,
11201210,
1011200010102000,
1010200000030030,
1011200010102000,
11201210,
3000111000001020,
0102100030003000,
30012110,
10012110,
1110200011102000,
00210020,
30330330,
33033330,
7008,
0003003030004000,
#GOGOSTART
0022100022100010,
02020202,
10010020,
1100110010100000,
10010021,
2210101010101000,
0000112001010202,
0101010000004000,
10010020,
1100110011001100,
0022100022100010,
0202010102020020,
01120020,
21120202,
0020000000021100,
0000002000111000,
0202000020202011,
1000002000030000,
#GOGOEND
#END
STYLE:Single
BALLOON:8
SCOREINIT:700
SCOREDIFF:170
#START
2022202022202020,
#MEASURE 2/4
11111000,
#MEASURE 4/4
1010200011102020,
1000211000112000,
1110202011104030,
,
1011201020101000,
1020102210201000,
1011201020101000,
1022102010221000,
1011201020101020,
1020102210201000,
3000111000111020,
1120112011221020,
1011202010222020,
1020102210111000,
1011202010222010,
1111100030030030,
0022101010222020,
1011202010222020,
1000111000111020,
1122100030003000,
30201120,
10210120,
1110200011102000,
1110201011102020,
32332332,
33233330,
7008,
3003003030004000,
#GOGOSTART
1022101022102010,
1120112011201020,
1022101022102010,
1120112011221000,
1022101022102010,
2010121010121000,
1120112011102220,
1111103000222000,
1022101022102010,
1120112011201020,
1022101022102010,
1212111212111000,
1011102010111020,
1011102010111020,
1120112011221120,
1000111000111000,
0022200022200011,
1000111000303000,
#GOGOEND
#END
COURSE:Oni
LEVEL:8
SCOREINIT:700
SCOREDIFF:170
#START
2022202022202020,
#MEASURE 2/4
11111000,
#MEASURE 4/4
1010200011102020,
1000211000112000,
1110202011104030,
,
1011201020101000,
1020102210201000,
1011201020101000,
1022102010221000,
1011201020101020,
1020102210201000,
3000111000111020,
1120112011221020,
1011202010222020,
1020102210111000,
1011202010222010,
1111100030030030,
0022101010222020,
1011202010222020,
1000111000111020,
1122100030003000,
30201120,
10210120,
1110200011102000,
1110201011102020,
32332332,
33233330,
7008,
3003003030004000,
#GOGOSTART
1022101022102010,
1120112011201020,
1022101022102010,
1120112011221000,
1022101022102010,
2010121010121000,
1120112011102220,
1111103000222000,
1022101022102010,
1120112011201020,
1022101022102010,
1212111212111000,
1011102010111020,
1011102010111020,
1120112011221120,
1000111000111000,
0022200022200011,
1000111000303000,
#GOGOEND
#END
COURSE:Hard
LEVEL:5
STYLE:Double
BALLOON:6
SCOREINIT:1100
SCOREDIFF:310
#START P1
22200000,
#MEASURE 2/4
01010000,
#MEASURE 4/4
2202,
20020220,
11001103,
,
10201022,
1212,
10201022,
1212,
10201022,
1212,
30110010,
0000111001010000,
00111100,
01011100,
00111100,
01003003,
00111100,
01011100,
30010101,
0033,
3202,
0202,
0202,
1110000011100000,
00330000,
03033030,
70000008,
30033040,
#GOGOSTART
10110110,
1100100011001000,
02202202,
02000200,
22002020,
02200220,
1110000022200000,
11100240,
02202200,
02000200,
10110110,
11111110,
10120021,
02020101,
10000200,
1000110000001000,
2000200000200011,
00010330,
#GOGOEND
#END
#START P2
00002220,
#MEASURE 2/4
1110,
#MEASURE 4/4
10001100,
10100100,
00110103,
,
00111100,
01011100,
00111100,
01011100,
00111100,
01011100,
30010110,
1110000010101000,
10201022,
1212,
10201022,
1000200000030030,
10201022,
1212,
30110001,
0033,
30001100,
10010100,
1110000011100000,
00220020,
30000330,
30030330,
70000008,
3003000030004000,
#GOGOSTART
10110110,
1100100011001000,
02202202,
02000200,
22002020,
02200220,
1110000022200000,
11100240,
02202200,
02000200,
10110110,
11111110,
10120021,
02020101,
10000200,
1000110000001000,
2000200000200011,
00010330,
#GOGOEND
#END
STYLE:Single
BALLOON:9,9
SCOREINIT:850
SCOREDIFF:200
#START
2022202020202000,
#MEASURE 2/4
33,
#MEASURE 4/4
10201120,
10210120,
11201043,
,
11201120,
12121010,
11201120,
12121010,
11201120,
12121010,
3000111000111000,
1110,
11221120,
12121010,
11221120,
1010100030030030,
00201120,
12121010,
1000111000111000,
1033,
30201120,
10210120,
10201120,
10210120,
30330330,
33033330,
500000000000000000000000000000000008000000000000,
3003003030000000,
#GOGOSTART
10110107,
00000800,
1000101000100011,
1011101000202000,
10110111,
01101110,
1110222011102220,
10330000,
10110107,
00000800,
1000101000100011,
1022201110222000,
1011102000111020,
0011102000111020,
1001,
1000111000111000,
0001,
1000111000111000,
#GOGOEND
#END
COURSE:Normal
LEVEL:4
BALLOON:6,6,6
SCOREINIT:1000
SCOREDIFF:290
#START
#MEASURE 4/4
,
#MEASURE 2/4
,
#MEASURE 4/4
100000000000100000000000100000100000100000000000,
100000000000200000000000000000000000000000000000,
100000000000100000000000100000000000300000300000,
000000000000000000000000000000000000000000000000,
100000000000100000000000100000100000100000000000,
100000000000100000000000200000000000000000000000,
100000000000100000000000100000100000100000000000,
100000000000100000000000200000000000000000000000,
100000000000100000000000100000100000100000000000,
100000000000100000000000200000000000000000000000,
100000000000100000100000000000100000100000000000,
100000000000000000000000000000000000000000000000,
100000000000100000000000100000100000100000000000,
200000000000200000000000200000000000000000000000,
100000000000100000000000100000100000100000000000,
200000000000200000000000200000000000000000000000,
100000000000100000000000100000100000100000000000,
200000000000200000000000200000000000000000000000,
100000000000100000100000000000100000100000000000,
100000000000000000000000300000000000300000000000,
300000000000000000000000100000000000000000000000,
100000000000200000000000100000000000000000000000,
100000000000000000000000100000000000000000000000,
100000000000200000000000100000000000000000000000,
300000000000000000300000000000000000300000000000,
000000300000000000000000300000000000500000000000,
000000000000000000000000000080000000000000000000,
300000000000000000000000300000000000000000000000,
#GOGOSTART
100000000000100000100000000000100000000000700000,
000000000000000000000000800000000000000000000000,
100000000000100000100000000000100000000000700000,
000000000000000000000000800000000000000000000000,
100000000000100000000000100000000000000000000000,
100000000000100000000000100000000000000000000000,
100000000000100000000000100000000000100000000000,
300000000000300000000000000000000000000000000000,
100000000000100000100000000000100000000000700000,
000000000000000000000000800000000000000000000000,
100000000000100000100000000000100000000000300000,
000000000000300000000000300000000000000000000000,
100000000000100000000000100000100000100000000000,
100000000000100000000000100000100000100000000000,
100000000000000000000000000000000000000000000000,
100000000000100000100000000000100000100000000000,
000000000000000000000000000000000000000000000000,
300000000000300000300000000000300000300000000000,
#GOGOEND
#END
COURSE:Easy
LEVEL:3
BALLOON:6,6,6
SCOREINIT:790
SCOREDIFF:250
#START
#MEASURE 4/4
,
#MEASURE 2/4
,
#MEASURE 4/4
100000000000100000000000100000000000000000000000,
100000000000100000000000000000000000000000000000,
100000000000100000000000100000000000000000000000,
100000000000000000000000000000000000000000000000,
100000000000100000000000100000000000000000000000,
100000000000100000000000200000000000000000000000,
100000000000100000000000100000000000000000000000,
100000000000100000000000200000000000000000000000,
100000000000100000000000100000000000000000000000,
100000000000100000000000200000000000000000000000,
100000000000100000000000100000000000000000000000,
300000000000000000000000000000000000000000000000,
100000000000100000000000100000000000000000000000,
200000000000200000000000200000000000000000000000,
100000000000100000000000100000000000000000000000,
200000000000200000000000200000000000000000000000,
100000000000100000000000100000000000000000000000,
200000000000200000000000200000000000000000000000,
100000000000100000000000100000000000000000000000,
100000000000000000000000300000000000300000000000,
300000000000000000000000200000000000000000000000,
200000000000000000000000200000000000000000000000,
300000000000000000000000300000000000000000000000,
300000000000000000000000000000000000000000000000,
300000000000000000300000000000000000300000000000,
000000300000000000000000300000000000500000000000,
000000000000000000000000000080000000000000000000,
300000000000000000000000300000000000000000000000,
#GOGOSTART
100000000000100000000000100000000000000000700000,
000000000000000000000000800000000000000000000000,
200000000000200000000000200000000000000000700000,
000000000000000000000000800000000000000000000000,
100000000000000000000000100000000000000000000000,
100000000000100000000000100000000000000000000000,
100000000000100000000000100000000000000000000000,
300000000000300000000000300000000000000000000000,
100000000000100000000000100000000000000000700000,
000000000000000000000000800000000000000000000000,
200000000000200000000000200000000000000000000000,
300000000000300000000000300000000000000000000000,
100000000000000000000000100000000000000000000000,
200000000000200000000000200000000000000000000000,
100000000000000000000000000000000000000000000000,
100000000000100000000000100000000000100000000000,
000000000000000000000000000000000000000000000000,
300000000000300000000000300000000000300000000000,
#GOGOEND
#END