Files
2023-01-17 00:45:18 -05:00

406 lines
5.2 KiB
Plaintext

//TJADB Project
TITLE:Tonkatsu DJ Agetarou -Tatsujin Mix-
TITLEJA:とんかつDJアゲ太郎
SUBTITLE:--Daisuke Fujiwara/Tonkatsu DJ Agetarou
SUBTITLEJA:-太鼓の達人Mix-
BPM:106
WAVE:Tonkatsu DJ Agetarou -Tatsujin Mix-.ogg
OFFSET:-2.408
DEMOSTART:29.660
COURSE:Oni
LEVEL:9
BALLOON:4,4
SCOREINIT:480
SCOREDIFF:120
#START
1000110101012000,
1000110101012000,
2020110212010110,
2020110212010110,
2120110212012110,
2120110202012110,
3010201212112010,
3010201212112010,
1122101212102120,
1122101212102120,
4040202020110122,
#BPMCHANGE 102
#SCROLL 1.03
2020202220202220,
1021120201012121,
1021120101012121,
1021120201012121,
1021120101012121,
1021120212012121,
1021120121012121,
1021120212012121,
1021121121212000,
#BPMCHANGE 108
#SCROLL 0.98
101001200101001201200201,
101001200101001201200201,
101001200101000201201201,
101001200101000700000800,
200200200002202202102100,
200200200002202202102100,
202200200002202202102100,
200200200002202102102100,
100222100222100222102202,
100222100222100222100000,
100222100222100222102202,
100222100222100221100000,
100200100001101102102102,
100200100001101102102102,
101000200101000101101101,
101000200101000700000800,
#BPMCHANGE 101
#SCROLL 1.04
2000200210102100,
2000200210102101,
2000200210102100,
200000000000200000000200100000500000000008000000,
1010220120102120,
1010221120102210,
1010220120102120,
2010221120102210,
1010220120102120,
1010221120102210,
2010220120102120,
1010221122102210,
#BPMCHANGE 120
#SCROLL 0.88
10101111,
#GOGOSTART
2010200110102010,
#GOGOEND
200100200001100100200100,
200100200001100100200100,
200100200001100100200100,
#GOGOSTART
2222222222222222,
#GOGOEND
2212222222122212,
2222222222222222,
2212222210101202,
#GOGOSTART
1000222110102120,
1010222112121210,
1210222112121210,
1210222112121210,
1000222110102120,
1010222112121210,
1210222112121212,
1222122212221212,
1,
#END
COURSE:Hard
LEVEL:7
BALLOON:3,3
SCOREINIT:530
SCOREDIFF:140
#START
1000110101011000,
1000110101011000,
2020100202020220,
2020110202020220,
2020100202020220,
2020110200000000,
3000201000102100,
3000201000102100,
1020201020202220,
1020201020202220,
4040202020110022,
#BPMCHANGE 102
#SCROLL 1.03
2020202220202020,
1001110101010100,
1001110101011000,
1001110101010100,
1001110101011000,
1001110202010100,
1001110101011000,
1001110202010100,
1001110101022000,
#BPMCHANGE 108
#SCROLL 0.97
2200102200201020,
2200102200201020,
2200102200202020,
2200102207000800,
2020200202202022,
2020200202202020,
2020200202202022,
2020200202202020,
1020102010201110,
1020102010111000,
1020102010201110,
1020102010111000,
1020100101101020,
1020100101101020,
2200102200202020,
2200102200700800,
#BPMCHANGE 101
#SCROLL 1.04
2000200000201100,
2000200000201100,
2000200000201100,
200000000000200000000000500000000000000008000000,
1010200200102010,
1010201110202010,
1010200200102010,
1010201110202020,
1010220200102010,
1010201110202010,
1010220200102010,
1010201110202020,
#BPMCHANGE 120
#SCROLL 0.88
,
#GOGOSTART
2000200110102000,
#GOGOEND
2000200110102000,
2000200110102000,
2000200110102000,
#GOGOSTART
2220202022202020,
#GOGOEND
2220222022202220,
2220202022202020,
2220222020201210,
#GOGOSTART
1000201110101100,
1000201110102000,
1110201110102220,
1110201110102220,
1000201110102200,
1000201110102000,
1110201110202220,
1102020202020202,
1,
#END
COURSE:Normal
LEVEL:6
BALLOON:13
SCOREINIT:660
SCOREDIFF:205
#START
1011,
1011,
2022,
2021,
2022,
2021,
30200120,
30200120,
30200120,
30200120,
44222200,
#BPMCHANGE 102
#SCROLL 1.03
2222,
10100120,
10100220,
10110120,
10111120,
10100120,
10100220,
10110120,
10111120,
#BPMCHANGE 108
#SCROLL 0.97
40040400,
30030300,
40040444,
30030300,
11100220,
11102220,
11100220,
11102220,
12121210,
500000000000000000000000000000000008000000000000,
12121210,
500000000000000000000000000000000008000000000000,
12100220,
12102220,
40040444,
30030330,
#BPMCHANGE 101
#SCROLL 1.04
0202,
0202,
0202,
0222,
10100120,
10100120,
10100120,
10100222,
10200120,
10200120,
10200120,
10201122,
#BPMCHANGE 120
#SCROLL 0.88
,
#GOGOSTART
20201120,
#GOGOEND
20201120,
20201120,
20201120,
#GOGOSTART
22222222,
#GOGOEND
22222222,
9,
8,
#GOGOSTART
10201120,
10201120,
10201120,
11221122,
10202120,
10202120,
11221122,
12121212,
3,
#END
COURSE:Easy
LEVEL:4
BALLOON:8,3,3,3,3,10
SCOREINIT:640
SCOREDIFF:228
#START
,
,
11,
1011,
11,
1011,
3,
3004,
3004,
3004,
3,
#BPMCHANGE 102
#SCROLL 1.03
70000800,
1011,
1022,
1011,
1022,
1011,
1022,
1122,
1112,
#BPMCHANGE 108
#SCROLL 0.97
40040000,
30030000,
40040400,
30030300,
1101,
1101,
1101,
1101,
500000000000000008000000500000000000000008000000,
500000000000000008000000500000000008000000000000,
7878,
7878,
1101,
1101,
30030300,
40040400,
#BPMCHANGE 101
#SCROLL 1.04
2,
2,
2,
2,
1202,
1202,
1202,
1120,
1202,
1202,
1202,
1112,
#BPMCHANGE 120
#SCROLL 0.88
,
#GOGOSTART
1022,
#GOGOEND
1011,
1022,
1011,
#GOGOSTART
2222,
#GOGOEND
2222,
9,
8,
#GOGOSTART
1011,
2022,
1210,
1122,
1011,
2022,
1122,
1212,
3,
#END