Files
2023-01-17 00:45:18 -05:00

411 lines
16 KiB
Plaintext

//TJADB Project
TITLE:Totsugeki Rock
TITLEJA:突撃ロック
SUBTITLE:--The Cro-Magnons/NARUTO-Shippuuden
SUBTITLEJA:「NARUTO‐ナルト‐疾風伝」より
BPM:201
WAVE:Totsugeki Rock.ogg
OFFSET:-1.677
DEMOSTART:53.579
COURSE:Oni
LEVEL:5
BALLOON:15,15
SCOREINIT:670
SCOREDIFF:195
#START
700000000000000000000000000000000000000000000000,
000800000000000000000000300000000000300000000000,
#GOGOSTART
300000000000200000000000100000100000200000000000,
100000000000200000000000300000000000300000000000,
300000000000200000000000100000100000200000000000,
100000000000200000000000300000000000300000000000,
300000000000200000000000100000100000200000000000,
100000100000200000000000300000300000300000300000,
#GOGOEND
300000000000200000100000000000000000100100100000,
100000000000200000100000000000000000200200200000,
100000000000200000100000000000000000100100100000,
100000000000200000100000000000000020000000000000,
100000000000200000000000100000100000200000000000,
100000000000200000000000100000100000200000000000,
100000000000200000000000100000100000200000000000,
100000000000200000100000000000100000200000000000,
100000000000200000000000100000100000200000000000,
100000000000200000000000100000100000200000000000,
100000000000200000000000100000100000200000000000,
100000100000200000100000200000200200200000200000,
100000000000200000200000000000100000200000000000,
100000000000200000200000000000100000200000000000,
100000000000200000200000000000100000200000000000,
100000000000200000200000000000100000400000000000,
100000000000200000000000100000100000200000000000,
100000000000200000000000100000100000200000000000,
100000000000200000000000100000100000200000000000,
100000100000200000100000100000200000200200200000,
100000000000200000000000100000100000200000000000,
100000100000200000000000100100100000200000000000,
100000000000200000000000100000100000200000100000,
000000100000200000100000000000100000200000000000,
100000000000200000000000100000100000200000000000,
100000100000200000000000100100100000200000000000,
100000000000200000000000100000100000200000100000,
000000100000200000200200200000200000200000200000,
100000000000200000200000000000100000200000000000,
100000000000200000200000000000100000200000000000,
100000000000200000200000000000100000200000000000,
100000000000200000200000400000000000400000000000,
100000000000200000000000100000100000200000200000,
100000000000200000000000100000100000200000200000,
700000000000000000000000000000000000000000000000,
000800000000000000000000300000000000300000000000,
#GOGOSTART
300000000000200000000000100000100000200000000000,
100100100000200000000000300000000000300000000000,
300000000000200000000000100000100000200000000000,
100100100000200000000000300000000000300000000000,
300000000000200000000000100000100000200000000000,
100100100000200000000000300000300000300000300000,
#GOGOEND
300000000000200000000000200000000000200000000000,
200000200000200000100000100000100000100000100000,
100000000000200000000000100000100000200000000000,
100000000000200000000000100000100000200000000000,
200000100100100000200000000000100000200000000000,
200000100100100000200000000000100000200000000000,
100000000000200000000000100000100000200000000000,
100000000000200000000000100000100000200000000000,
200000100100100000200000000000100000200000000000,
200000100100100000200000000000100000200000000000,
100000000000200000000000100000100000200000000000,
100000000000200000000000100000100000200000000000,
100000200200200000100000000000200000100000000000,
100000200200200000100000000000200000100000000000,
100000000000200000000000100000100000200000000000,
100000100000200000000000200000200000200000200000,
100000000000200000100000000000000000100100100000,
100000000000200000100000000000000000200000000000,
100000000000200000100000000000000000200200200000,
100000000000200000100000000000000000100100100000,
100000000000200000100000000000000000200200200000,
100000000000200000100000000000000000100100000000,
#MEASURE 6/4
500000000000000000000000000000000080000000000000
#BPMCHANGE 186.7
#SCROLL 1.07
100010002000
#BPMCHANGE 156
#SCROLL 1.28
100000000000,
#MEASURE 4/4
3,
#END
COURSE:Hard
LEVEL:5
BALLOON:13,13
SCOREINIT:650
SCOREDIFF:188
#START
700000000000000000000000000000000000000000800000,
000000000000000000000000300000000000300000000000,
#GOGOSTART
300000000000200000000000100000100000100000000000,
100000000000200000000000300000000000300000000000,
300000000000200000000000100000100000100000000000,
100000000000200000000000300000000000300000000000,
300000000000200000000000100000100000100000000000,
100000000000200000000000300000300000300000300000,
#GOGOEND
300000000000100000100000000000000000100000100000,
100000000000200000100000000000000000100000100000,
100000000000100000100000000000000000100000100000,
100000000000200000100000000000000020000000000000,
100000000000200000000000100000100000100000000000,
100000000000200000000000100000100000100000000000,
100000000000200000000000100000100000100000000000,
100000000000200000100000000000100000200000000000,
100000000000200000000000100000100000100000000000,
100000000000200000000000100000100000100000000000,
100000000000200000000000100000100000100000000000,
100000000000100000000000100000100100100000100000,
100000000000200000200000000000000000200000000000,
100000000000200000200000000000000000200000000000,
100000000000200000200000000000000000200000000000,
100000000000200000200000000000000000400000000000,
100000000000200000000000100000100000200000000000,
100000000000200000000000100000100000200000000000,
100000000000200000000000100000100000100000000000,
100000000000100000000000100000100000100100100000,
100000000000200000000000100000100000100000000000,
100000000000200000000000100000100000200000000000,
100000000000200000000000100000100000100000000000,
100000000000200000100000000000100000200000000000,
100000000000200000000000100000100000100000000000,
100000000000200000000000100000100000200000000000,
100000000000200000000000100000100000100000000000,
100000000000100000100100100000100000100000100000,
100000000000200000200000000000000000200000000000,
100000000000200000200000000000000000200000000000,
100000000000200000200000000000000000200000000000,
100000000000200000200000400000000000400000000000,
100000000000200000000000100000100000200000000000,
100000000000200000000000100000100000200000000000,
700000000000000000000000000000000000000000000000,
800000000000000000000000300000000000300000000000,
#GOGOSTART
300000000000200000000000100000100000200000000000,
100000000000200000000000300000000000300000000000,
300000000000200000000000100000100000200000000000,
100000000000200000000000300000000000300000000000,
300000000000200000000000100000100000200000000000,
100000000000200000000000300000300000300000300000,
#GOGOEND
300000000000200000000000000000000000200000000000,
200000200000200000100000000000100000100000000000,
100000000000200000000000100000100000200000000000,
100000000000200000000000100000100000200000000000,
200000000000100000200000000000100000200000000000,
200000000000100000200000000000100000200000000000,
100000000000200000000000100000100000200000000000,
100000000000200000000000100000100000200000000000,
200000000000100000200000000000100000200000000000,
200000000000100000200000000000100000200000000000,
100000000000200000000000100000100000200000000000,
100000000000200000000000100000100000200000000000,
100000000000200000100000000000200000100000000000,
100000000000200000100000000000200000100000000000,
100000000000200000000000100000100000200000000000,
100000100000200000000000200000200000200000200000,
100000000000000000100000000000000000100000100000,
100000000000200000100000000000000000100000100000,
100000000000000000100000000000000000100000100000,
100000000000200000100000000000000000100000100000,
100000000000000000100000000000000000100000100000,
100000000000200000100000000000000000100000000000,
#MEASURE 6/4
500000000000000000000000000000000000000000000000
#BPMCHANGE 186.7001
000000000000
#BPMCHANGE 156.0002
#SCROLL 1.28
000000800000,
#MEASURE 4/4
300000000000000000000000000000000000000000000000,
#END
COURSE:Normal
LEVEL:4
BALLOON:6,6,8,13
SCOREINIT:950
SCOREDIFF:388
#START
700000000000000000000000000000000000000000800000,
000000000000000000000000300000000000300000000000,
#GOGOSTART
300000000000000000000000200000000000200000000000,
200000000000000000000000300000000000300000000000,
300000000000000000000000200000000000200000000000,
200000000000000000000000300000000000300000000000,
300000000000000000000000200000000000200000000000,
200000000000000000000000300000000000300000000000,
#GOGOEND
300000000000000000500000000000000080000000000000,
100000000000000000500000000000000080000000000000,
100000000000000000500000000000000080000000000000,
100000000000000000500000000000000080000000000000,
100000000000000000000000100000000000000000000000,
100000000000000000000000100000000000100000000000,
100000000000000000000000100000000000000000000000,
200000000000000000000000000000000000000000000000,
100000000000000000000000100000000000000000000000,
100000000000000000000000100000000000100000000000,
100000000000000000000000100000000000000000000000,
200000000000100000000000100000000000100000000000,
000000000000200000000000000000000000200000000000,
000000000000200000000000000000000000200000000000,
000000000000200000000000000000000000200000000000,
000000000000200000000000200000000000000000000000,
100000000000000000000000100000000000000000000000,
100000000000000000000000100000000000100000000000,
100000000000000000000000500000000000000000000000,
000000000080000000000000000000000000000000000000,
100000000000000000000000100000000000000000000000,
100000000000000000000000100000000000100000000000,
100000000000000000000000100000000000000000000000,
200000000000000000000000000000000000000000000000,
100000000000000000000000100000000000000000000000,
100000000000000000000000100000000000100000000000,
100000000000000000000000100000000000000000000000,
200000000000100000000000100000000000100000000000,
000000000000200000000000000000000000200000000000,
000000000000200000000000000000000000200000000000,
000000000000200000000000000000000000200000000000,
000000000000200000000000200000000000000000000000,
100000000000000000000000100000000000100000000000,
100000000000000000000000100000000000100000000000,
700000000000000000000000000000000000000000000000,
800000000000000000000000300000000000300000000000,
#GOGOSTART
300000000000000000000000200000000000200000000000,
200000000000000000000000300000000000300000000000,
300000000000000000000000200000000000200000000000,
200000000000000000000000300000000000300000000000,
300000000000000000000000200000000000200000000000,
200000000000000000000000300000000000300000000000,
#GOGOEND
900000000000000000000000000000000000000000000000,
000800000000000000000000000000000000000000000000,
100000000000000000000000100000000000100000000000,
100000000000000000000000100000000000100000000000,
200000000000000000000000200000000000000000000000,
200000000000000000000000200000000000000000000000,
100000000000000000000000100000000000100000000000,
100000000000000000000000100000000000100000000000,
200000000000000000000000200000000000000000000000,
200000000000000000000000200000000000000000000000,
100000000000000000000000100000000000100000000000,
100000000000000000000000200000000000200000000000,
100000000000000000000000100000000000000000000000,
100000000000000000000000100000000000000000000000,
100000000000000000000000100000000000100000000000,
100000000000000000000000200000000000200000000000,
100000000000000000100000000000000000000000000000,
100000000000000000100000000000000000000000000000,
100000000000000000100000000000000000000000000000,
100000000000000000100000000000000000000000000000,
100000000000000000100000000000000000000000000000,
100000000000000000100000000000000000000000000000,
#MEASURE 6/4
900000000000000000000000000000000000000000000000
#BPMCHANGE 186.7001
000000000000
#BPMCHANGE 156.0002
#SCROLL 1.28
000000000008,
#END
COURSE:Easy
LEVEL:3
BALLOON:2,2,2,2,4,5,10
SCOREINIT:900
SCOREDIFF:505
#START
000000000000000000000000000000000000000000000000,
000000000000000000000000300000000000000000000000,
#GOGOSTART
300000000000000000000000200000000000000000000000,
200000000000000000000000300000000000000000000000,
300000000000000000000000200000000000000000000000,
200000000000000000000000300000000000000000000000,
300000000000000000000000200000000000000000000000,
200000000000000000000000300000000000000000000000,
#GOGOEND
300000000000000000700000000000000000800000000000,
000000000000000000700000000000000000800000000000,
000000000000000000700000000000000000800000000000,
000000000000000000700000000000000000800000000000,
100000000000000000000000100000000000000000000000,
100000000000000000000000000000000000000000000000,
100000000000000000000000100000000000000000000000,
200000000000000000000000000000000000000000000000,
100000000000000000000000100000000000000000000000,
100000000000000000000000000000000000000000000000,
100000000000000000000000100000000000000000000000,
100000000000100000000000100000000000000000000000,
200000000000000000000000000000000000000000000000,
200000000000000000000000000000000000000000000000,
200000000000000000000000000000000000000000000000,
200000000000000000000000000000000000000000000000,
100000000000000000000000100000000000000000000000,
100000000000000000000000100000000000100000000000,
100000000000000000000000500000000000000000000000,
000000000080000000000000000000000000000000000000,
100000000000000000000000100000000000000000000000,
100000000000000000000000000000000000000000000000,
100000000000000000000000100000000000000000000000,
200000000000000000000000000000000000000000000000,
100000000000000000000000100000000000000000000000,
100000000000000000000000000000000000000000000000,
100000000000000000000000100000000000000000000000,
100000000000100000000000100000000000000000000000,
200000000000000000000000000000000000000000000000,
200000000000000000000000000000000000000000000000,
200000000000000000000000000000000000000000000000,
200000000000000000000000000000000000000000000000,
100000000000000000000000100000000000000000000000,
100000000000000000000000100000000000100000000000,
700000000000000000000000000000000000000000000000,
800000000000000000000000300000000000000000000000,
#GOGOSTART
300000000000000000000000200000000000000000000000,
200000000000000000000000300000000000000000000000,
300000000000000000000000200000000000000000000000,
200000000000000000000000300000000000000000000000,
300000000000000000000000200000000000000000000000,
200000000000000000000000300000000000000000000000,
#GOGOEND
900000000000000000000000000000000000000000000000,
000800000000000000000000000000000000000000000000,
100000000000000000000000000000000000000000000000,
100000000000000000000000100000000000000000000000,
200000000000000000000000000000000000000000000000,
200000000000000000000000000000000000000000000000,
100000000000000000000000000000000000000000000000,
100000000000000000000000100000000000000000000000,
200000000000000000000000000000000000000000000000,
200000000000000000000000000000000000000000000000,
100000000000000000000000000000000000000000000000,
100000000000000000000000100000000000000000000000,
200000000000000000000000000000000000000000000000,
200000000000000000000000000000000000000000000000,
100000000000000000000000000000000000000000000000,
100000000000000000000000200000000000000000000000,
100000000000000000100000000000000000000000000000,
100000000000000000100000000000000000000000000000,
100000000000000000100000000000000000000000000000,
100000000000000000100000000000000000000000000000,
100000000000000000100000000000000000000000000000,
100000000000000000100000000000000000000000000000,
#MEASURE 6/4
900000000000000000000000000000000000000000000000
#BPMCHANGE 186.7001
000000000000
#BPMCHANGE 156.0002
#SCROLL 1.28
000000000008,
#END