forked from ESE/ESE
272 lines
6.8 KiB
Plaintext
272 lines
6.8 KiB
Plaintext
//TJADB Project
|
|
TITLE:Touch -Short Version-
|
|
TITLEJA:タッチ -Short Version-
|
|
SUBTITLE:--Yoshimi Iwasaki/Touch
|
|
BPM:161
|
|
WAVE:Touch -Short Version-.ogg
|
|
OFFSET:-3.509
|
|
DEMOSTART:44.247
|
|
|
|
COURSE:Oni
|
|
LEVEL:5
|
|
BALLOON:10,16
|
|
SCOREINIT:790
|
|
SCOREDIFF:223
|
|
|
|
|
|
#START
|
|
|
|
|
|
3,
|
|
01111111,
|
|
1020201000112020,
|
|
1020201000112020,
|
|
1020201000112020,
|
|
1020201000112020,
|
|
1020201000112020,
|
|
1020201000112020,
|
|
1010101011101110,
|
|
3000400000112020,
|
|
1010202000112020,
|
|
1010202000112020,
|
|
1010202000112020,
|
|
1010202000112020,
|
|
1110101011102020,
|
|
20001111,
|
|
30110110,
|
|
1000112011201120,
|
|
10120211,
|
|
10120211,
|
|
10120211,
|
|
10120122,
|
|
10110222,
|
|
10110222,
|
|
1011101022202020,
|
|
500000000000000000000000000000000008000000000000,
|
|
01010101,
|
|
3232,
|
|
1010103000222020,
|
|
11211211,
|
|
7008,
|
|
|
|
#GOGOSTART
|
|
3000112011201120,
|
|
10120211,
|
|
10120211,
|
|
10120211,
|
|
10120211,
|
|
12020211,
|
|
2020101020222020,
|
|
7,
|
|
0008,
|
|
|
|
#GOGOEND
|
|
1010201000112020,
|
|
1010202000112020,
|
|
1010202000122020,
|
|
1010202000222020,
|
|
11211211,
|
|
20001121,
|
|
30110020,
|
|
12012020,
|
|
|
|
|
|
#END
|
|
|
|
|
|
COURSE:Hard
|
|
LEVEL:6
|
|
BALLOON:6,6,8,12,8
|
|
SCOREINIT:860
|
|
SCOREDIFF:248
|
|
|
|
|
|
#START
|
|
|
|
|
|
000000000000000000000000000000000000000000000000,
|
|
000000000000000000000000000000000000000000000000,
|
|
100000100000100000100000000000100000200000200000,
|
|
100000100000100000100000000000100000200000200000,
|
|
100000100000100000100000000000100000200000200000,
|
|
100000100000100000100000000000100000200000200000,
|
|
100000100000100000100000000000200000100000200000,
|
|
100000100000100000100000000000200000100000200000,
|
|
100000100000200000200000100000100000100000100000,
|
|
300000000000200000000000000000100000100000000000,
|
|
100000100000200000200000000000100000100000000000,
|
|
100000100000200000200000000000100000100000000000,
|
|
100000100000200000200000000000100000100000100000,
|
|
100000200000200000200000000000000000000000000000,
|
|
100000100000100000000000100000100000200000000000,
|
|
200000000000000000000000100000100000100000100000,
|
|
300000000000100000100000000000100000100000000000,
|
|
100000000000100100200000100100200000100100200000,
|
|
700000000000000000000800000000000000100000100000,
|
|
000000000000100100200000100100200000100100200000,
|
|
700000000000000000000800000000000000200200100000,
|
|
000000000000000000000000000000000000200000200000,
|
|
100000100000100000100000000000100000000000000000,
|
|
100000100000100000100000000000200000000000000000,
|
|
100000100000100000000000200000200000200000200000,
|
|
100000200000000000200000000000100000100000200000,
|
|
000000100000000000200000000000100000000000200000,
|
|
300000000000400000000000300000000000400000000000,
|
|
100000100000200000300000000000000000200000000000,
|
|
100000200000100000100000100000000000100000000000,
|
|
700000000000000000000000000000000800000000000000,
|
|
#GOGOSTART
|
|
300000000000100000000000100000000000100000000000,
|
|
100100200000100100200000100100200000200000200000,
|
|
000000000000100000000000100000000000100000000000,
|
|
100100200000100100200000100100200000200000200000,
|
|
000000000000000000000000000000000000100000100000,
|
|
100000100000000000200000000000200000100000100000,
|
|
100000100000100000000000200000000000200000000000,
|
|
700000000000000000000000000000000000000000000000,
|
|
000000000000000000000000000000000800000000000000,
|
|
#GOGOEND
|
|
100000100000100000100000000000100000200000200000,
|
|
100000100000100000100000000000100000200000200000,
|
|
100000100000100000100000000000100000200000200000,
|
|
100000100000100000100000000000100000200000200000,
|
|
100000000000100000000000100000100000100000100000,
|
|
200000000000000000000000100000100000100000100000,
|
|
700000000000000000000000000000000800000000000000,
|
|
100000200000000000100000200000000000200000000000,
|
|
|
|
|
|
#END
|
|
|
|
|
|
COURSE:Normal
|
|
LEVEL:4
|
|
BALLOON:6,5
|
|
SCOREINIT:1070
|
|
SCOREDIFF:240
|
|
|
|
|
|
#START
|
|
|
|
|
|
000000000000000000000000000000000000000000000000,
|
|
000000000000000000000000000000000000000000000000,
|
|
100000000000100000100000000000000000200000000000,
|
|
100000000000100000100000000000000000200000000000,
|
|
100000000000100000100000000000000000200000000000,
|
|
100000000000100000100000000000000000200000000000,
|
|
100000000000100000100000000000000000200000000000,
|
|
100000000000100000100000000000000000200000000000,
|
|
100000000000100000000000100000000000100000000000,
|
|
100000000000400000000000000000000000000000000000,
|
|
100000000000100000100000000000000000200000000000,
|
|
100000000000100000100000000000000000200000000000,
|
|
100000000000100000100000000000000000200000000000,
|
|
100000000000100000100000000000000000200000000000,
|
|
100000000000000000000000100000000000100000000000,
|
|
100000000000000000000000100000000000100000100000,
|
|
500000000000000000000000000000800000000000000000,
|
|
300000000000100000000000100000000000100000000000,
|
|
500000000000000000000000000000800000000000000000,
|
|
100000000000100000000000100000000000100000000000,
|
|
500000000000000000000000000000800000000000000000,
|
|
100000000000000000000000000000000000000000000000,
|
|
100000000000100000100000000000000000200000000000,
|
|
100000000000100000100000000000000000200000000000,
|
|
200000000000200000000000100000000000100000100000,
|
|
500000000000000000000000000000800000000000000000,
|
|
100000000000100000000000100000000000100000000000,
|
|
300000000000000000000000300000000000000000000000,
|
|
300000000000000000300000000000000000000000000000,
|
|
100000000000100000000000100000000000100000000000,
|
|
500000000000000000000000000000800000000000000000,
|
|
#GOGOSTART
|
|
300000000000100000000000100000000000100000000000,
|
|
500000000000000000000000000000800000000000000000,
|
|
000000000000100000000000100000000000100000000000,
|
|
500000000000000000000000000000800000000000000000,
|
|
000000000000000000000000000000000000000000000000,
|
|
100000100000000000100000100000000000200000000000,
|
|
100000000000100000000000100000000000200000000000,
|
|
700000000000000000000000000000000000000000000000,
|
|
000000000000000000000000000000800000000000000000,
|
|
#GOGOEND
|
|
100000000000100000100000000000000000200000000000,
|
|
100000000000100000100000000000000000200000000000,
|
|
100000000000100000100000000000000000200000000000,
|
|
100000000000100000100000000000000000200000000000,
|
|
100000000000200000000000100000000000200000000000,
|
|
100000000000000000000000100000000000100000000000,
|
|
700000000000000000000000000000800000000000000000,
|
|
200000200000000000200000200000000000000000000000,
|
|
|
|
|
|
#END
|
|
|
|
|
|
COURSE:Easy
|
|
LEVEL:4
|
|
SCOREINIT:930
|
|
SCOREDIFF:448
|
|
|
|
|
|
#START
|
|
|
|
|
|
,
|
|
,
|
|
1100,
|
|
1100,
|
|
1100,
|
|
1100,
|
|
1100,
|
|
1100,
|
|
1111,
|
|
1200,
|
|
10110000,
|
|
10110000,
|
|
10110000,
|
|
10110000,
|
|
1111,
|
|
1011,
|
|
500000000000000000000000000000000008000000000000,
|
|
0111,
|
|
500000000000000000000000000000000008000000000000,
|
|
0111,
|
|
500000000000000000000000000000000008000000000000,
|
|
00000011,
|
|
10110010,
|
|
10110100,
|
|
11101010,
|
|
1,
|
|
1111,
|
|
33,
|
|
00030000,
|
|
1111,
|
|
500000000000000000000000000000000008000000000000,
|
|
|
|
#GOGOSTART
|
|
3,
|
|
500000000000000000000000000000000008000000000000,
|
|
0111,
|
|
500000000000000000000000000000000008000000000000,
|
|
0001,
|
|
1110,
|
|
1111,
|
|
500000000000000000000000000000000000000000000008,
|
|
,
|
|
|
|
#GOGOEND
|
|
10110000,
|
|
10110000,
|
|
10110000,
|
|
10110000,
|
|
1111,
|
|
2011,
|
|
3,
|
|
20022000,
|
|
|
|
|
|
#END
|
|
|