Files
2023-06-15 19:05:10 -05:00

384 lines
16 KiB
Plaintext

//TJADB Project
TITLE:Touch off
TITLEJA:Touch off
SUBTITLE:--UVERworld/Yakusoku no Neverland
SUBTITLEJA:「約束のネバーランド」より
BPM:200
WAVE:Touch off.ogg
OFFSET:-2.251
DEMOSTART:64.319
BGMOVIE:Touch off.mp4
COURSE:Oni
LEVEL:9
BALLOON:5,5,5,5
SCOREINIT:670
SCOREDIFF:178
#START
#BARLINEOFF
#MEASURE 1/8
200200,
#BARLINEON
#MEASURE 4/4
100000000000000000000000200000000000100000100000,
000000000000000000100000200000000000000000100000,
100000000000000000000000200000000000100000100000,
000000000000000000000000200000100000200000100000,
400000000000200000100000000000100000100000400000,
000000400000000000000000200000000000100000100000,
200000100000100000200000000000100000100000500000,
000000000000000008000000400000000000000000000000,
#GOGOSTART
100000100000000000100000200000000000100000100100,
101010100000100000100000200200100100200000200000,
100000100000200000100000200000000000200200100000,
100000200000100100200000200200100000200000200000,
100000100000200200100000200000000000100000100000,
100100200000100000100000200200100000200000200000,
100100100000000000100000200000100100200000100100,
100000200000100100100000200000100000200000100000,
#GOGOEND
700000000000000000800000100000000000700000000000,
000000800000100000000000100000100000200000000000,
700000000000000000800000300000000000700000000000,
000000800000100000000000200000100000200000000000,
100000200000100000000000200000100000100000200000,
100200200000200000100000200000100100200200200000,
100000200000100000000000200000100000100000200000,
100200200000200000100100200000100000200000101010,
100000200000100000000000200000100000100000200000,
100000200000500000000000000000000008000000000000,
000000200200200000200000200200200000200000000000,
200000100000100000100000200000100100200200100100,
200000200000100000100000200000100000100000200000,
100200200000200000100000200000100100200200200000,
100000200000100000100000200000100000200000100000,
100200200000200000100100200000100000200000200200,
100000200000100000100000200000100000200000100000,
100000000000100000100000500000000000000008000000,
000000200200200000200000200200200000200000000000,
100000100000000000100000200000100000200000200200,
100000100000000000200000100000100000000000100000,
200000200000000000100000200000200000000000200000,
100000100000000000200000100000100000000000100100,
200000200000000000100100200000200000000000200200,
100000100000000000200200100000100000000000100100,
200000200000000000100100200000200000000000200200,
100000100000000000200200100000100000000000200000,
100000000000100000000000200000001000000010000000,
500000000000000000000008000000000000000000200000,
100000100000000000100000000000200000000000100000,
000000500000000000000000000000000008000000000000,
200000000000100000100000200000100000000000100100,
200000100000000000100000200000100000200000100100,
200000100000000000100000200000100000200000200000,
300000000000000000000000300000000000000000000000,
300000000000000000000000000000200200200000200000,
#GOGOSTART
100000000000100100100000200000101010100000100000,
000000100000200000000000200000100100200000200000,
100000000000100100100000200000100000202020200000,
000000100000101010100000200000100000202020200000,
100000000000100000100000200000101010100000200000,
000000100000100000000000200000200200100000100000,
200200100000100000200000200200100000100000500000,
000000000000000008000000400000000000100000200000,
100000000000100100100000200000101010100000100000,
000000100000200000000000200000100100200000200000,
100000000000100100100000200000100000202020200000,
100000200000101010100000200000100000202020200000,
100000200000100000100000200000101010100000200000,
000000100000100000000000200000200200100000100000,
200200100000100000200000200200100000100000500000,
000000000000000008000000100000000000100000100000,
200000000000100000100000200000100100200000100000,
000000100000100000000000200000000000100000100000,
200000100000100000200000000000100000100000500000,
000000000000000000000008000000000000000000000000,
#GOGOEND
#END
COURSE:Hard
LEVEL:7
BALLOON:4,4,4,4
#START
#BARLINEOFF
#MEASURE 1/8
100100,
#BARLINEON
#MEASURE 4/4
100000000000000000000000200000000000100000100000,
000000000000000000100000200000000000000000100000,
100000000000000000000000200000000000100000100000,
000000000000000000000000100000100000100000100000,
400000000000200000100000000000100000100000400000,
000000400000000000000000200000000000100000100000,
100000100000100000100000000000100000100000500000,
000000000000000008000000400000000000000000000000,
#GOGOSTART
100000100000000000100000100000000000100000100000,
000000100000100000000000100000100000200000200000,
100000100000000000100000200000000000200000100000,
000000200000100000000000200000100000200000200000,
100000100000000000100000200000000000100000100000,
000000200000100000000000200000100000200000200000,
100000100000000000100000200000000000200000100000,
000000200000100000000000200000100000200000200000,
#GOGOEND
700000000000000000800000000000000000700000000000,
000000800000000000000000100000100000100000000000,
700000000000000000800000300000000000700000000000,
000000800000000000000000200000100000100000100000,
200000000000100000000000200000100000100000100000,
100000000000000000100000200000100000100000000000,
100000000000100000000000200000100000100000100000,
100000000000000000100000200000100000100000000000,
100000000000100000000000200000100000200000100000,
000000500000000000000000000000000008000000000000,
000000200000200000000000400000000000400000000000,
000000100000100000100000200000100000200000100000,
200000000000100000000000200000100000100000100000,
100000000000000000100000200000100000100000000000,
100000000000100000000000200000100000200000100000,
100000000000100000000000200000100000100000000000,
100000000000100000000000200000100000200000100000,
100000000000100000100000500000000000000008000000,
000000200000200000000000400000000000400000000000,
100000100000000000100000000000100000000000100000,
100000100000000000100000100000100000000000100000,
100000100000000000100000100000100000000000200000,
200000200000000000200000200000200000000000200000,
200000200000000000200000200000200000000000100000,
100000100000000000100000100000100000000000100000,
100000100000000000100000100000100000000000200000,
200000200000000000200000200000200000000000100000,
100000000000100000000000100000001000000010000000,
500000000000000000000008000000000000000000100000,
100000100000000000100000000000100000000000100000,
000000500000000000000000000000000008000000000000,
200000000000100000100000200000100000000000100000,
000000100000000000100000200000100000000000100000,
000000100000000000100000200000100000200000000000,
300000000000000000000000300000000000000000000000,
300000000000000000000000000000000000000000000000,
#GOGOSTART
100000000000100000100000200000100000000000100000,
000000100000200000000000200000100000200000200000,
100000000000100000100000200000100000000000100000,
000000100000200000000000200000000000200000000000,
100000000000100000000000200000100000100000200000,
000000100000100000000000200000000000100000100000,
200000100000100000200000000000100000100000500000,
000000000000000000000008000000000000100000100000,
100000000000100000100000200000100000000000100000,
000000100000200000000000200000100000200000200000,
100000000000100000000000200000000000200200200000,
000000100000200000000000200000200000200000200000,
100000000000100000000000200000100000100000200000,
000000100000100000000000200000000000100000100000,
200000100000100000200000000000100000100000500000,
000000000000000008000000100000000000100000000000,
200000000000100000000000200000100000100000200000,
000000100000100000000000100000000000100000100000,
100000100000100000100000000000100000100000500000,
000000000000000000000008000000000000000000000000,
#GOGOEND
000000000000000000000000000000000000000000000000,
000000000000000000000000000000000000000000000000,
#END
COURSE:1
LEVEL:6
BALLOON:3,3,3,3,12,12
#START
#BARLINEOFF
#MEASURE 1/8
000000,
#BARLINEON
#MEASURE 4/4
100000000000000000000000200000000000100000000000,
000000000000000000000000200000000000000000000000,
100000000000000000000000200000000000100000000000,
000000000000000000000000100000000000100000000000,
400000000000000000000000000000000000000000300000,
000000300000000000000000600000000000000000000000,
000000000000000000000000000000000000000000000008,
000000000000000000000000400000000000000000000000,
#GOGOSTART
100000100000000000000000200000000000100000000000,
000000000000100000000000200000000000000000000000,
100000100000000000000000200000000000200000000000,
000000000000100000000000200000000000000000000000,
100000100000000000000000200000000000100000000000,
000000000000100000000000200000000000000000000000,
100000100000000000000000200000000000200000000000,
000000000000100000000000200000000000000000000000,
#GOGOEND
700000000000000000800000000000000000700000000000,
000000800000000000000000000000000000000000000000,
700000000000000000800000300000000000700000000000,
000000800000000000000000000000000000000000000000,
300000000000300000000000000000100000000000000000,
400000000000400000000000000000100000000000000000,
300000000000300000000000000000100000000000000000,
200000200000200000000000000000000000000000000000,
100000000000100000000000100000000000000000500000,
000000000000000000000000000000000008000000000000,
000000000000000000000000400000000000400000000000,
000000000000000000000000000000000000000000000000,
300000000000300000000000000000100000000000000000,
400000000000400000000000000000100000000000000000,
100000000000100000000000100000000000100000000000,
400000000000400000000000000000000000000000000000,
100000000000100000000000100000100000100000000000,
100000000000100000000000100000000000000000000000,
000000000000000000000000400000000000400000000000,
000000000000000000000000000000000000000000000000,
100000100000000000100000000000100000000000100000,
000000100000000000100000000000100000000000200000,
000000200000000000200000000000200000000000200000,
000000200000000000200000000000200000000000100000,
000000100000000000100000000000100000000000100000,
000000100000000000100000000000100000000000200000,
000000200000000000200000000000200000000000200000,
500000000000000000000000000000000000000000000000,
000000000000000000000008000000000000000000000000,
700000000000000000000000000000000000000000000000,
000000000000000000000000800000000000000000000000,
400000000000000000000000000000000000000000300000,
000000000000000000000000000000000000000000400000,
000000000000000000000000000000000000200000000000,
300000000000000000000000300000000000000000000000,
300000000000000000000000000000000000000000000000,
#GOGOSTART
100000000000100000000000100000100000000000100000,
000000000000200000000000200000000000000000000000,
100000000000100000000000100000100000000000100000,
000000000000200000000000200000000000000000000000,
100000000000100000000000100000100000100000100000,
000000100000000000000000900000000000000000000000,
000000000000000000000000000000900000000000000000,
800000000000000000000000000000000000000000000000,
100000000000100000000000100000100000000000100000,
000000000000200000000000200000000000000000000000,
100000000000100000000000100000100000100000100000,
000000000000200000000000200000000000000000000000,
100000000000100000000000100000000000100000100000,
000000100000000000000000500000000000000000000000,
000000000000000000000000000000000000000000000008,
000000000000000000000000100000000000100000000000,
200000000000100000000000100000000000100000100000,
000000100000000000000000500000000000000000000000,
000000000000000000000000000000000000000000000000,
000000000000000000000008000000000000000000000000,
#GOGOEND
000000000000000000000000000000000000000000000000,
000000000000000000000000000000000000000000000000,
#END
COURSE:0
LEVEL:4
BALLOON:2,2,2,2,10,10
#START
#BARLINEOFF
#MEASURE 1/8
000000,
#BARLINEON
#MEASURE 4/4
000000000000000000000000200000000000000000000000,
000000000000000000000000200000000000000000000000,
000000000000000000000000200000000000000000000000,
000000000000000000000000200000000000000000000000,
400000000000000000000000000000000000000000300000,
000000300000000000000000600000000000000000000000,
000000000000000000000000000000000000000000000008,
000000000000000000000000400000000000000000000000,
#GOGOSTART
100000000000000000000000100000000000100000000000,
000000000000100000000000100000000000000000000000,
100000000000000000000000100000000000100000000000,
000000000000000000000000000000000000000000000000,
100000000000000000000000100000000000100000000000,
000000000000100000000000100000000000000000000000,
100000000000000000000000100000000000100000000000,
000000000000000000000000000000000000000000000000,
#GOGOEND
700000000000000000800000000000000000700000000000,
000000800000000000000000000000000000000000000000,
700000000000000000800000000000000000700000000000,
000000800000000000000000000000000000000000000000,
300000000000300000000000000000000000000000000000,
400000000000400000000000000000000000000000000000,
300000000000300000000000000000000000000000000000,
400000000000400000000000000000000000000000000000,
100000000000100000000000100000000000000000500000,
000000000000000000000000000008000000000000000000,
000000000000000000000000400000000000000000000000,
000000000000000000000000000000000000000000000000,
300000000000300000000000000000000000000000000000,
400000000000400000000000000000000000000000000000,
100000000000100000000000100000000000000000000000,
400000000000400000000000000000000000000000000000,
100000000000100000000000100000000000100000000000,
100000000000100000000000100000000000000000000000,
000000000000000000000000400000000000000000000000,
000000000000000000000000000000000000000000000000,
100000000000000000000000100000000000000000000000,
100000000000000000000000100000000000000000000000,
200000000000000000000000200000000000000000000000,
200000000000000000000000200000000000000000000000,
100000000000000000000000200000000000000000000000,
100000000000000000000000200000000000000000000000,
100000000000000000000000200000000000000000000000,
500000000000000000000000000000000000000000000000,
000000000000000000000008000000000000000000000000,
700000000000000000000000000000000000000000000000,
000000000000000000000000800000000000000000000000,
400000000000000000000000000000000000000000300000,
000000000000000000000000000000000000000000400000,
000000000000000000000000000000000000000000000000,
300000000000000000000000300000000000000000000000,
300000000000000000000000000000000000000000000000,
#GOGOSTART
100000000000000000000000100000000000000000100000,
000000000000200000000000200000000000000000000000,
100000000000000000000000100000000000000000100000,
000000000000200000000000200000000000000000000000,
100000000000000000000000100000000000000000100000,
000000100000000000000000900000000000000000000000,
000000000000000000000000000000900000000000000000,
800000000000000000000000000000000000000000000000,
100000000000000000000000100000000000000000100000,
000000000000200000000000200000000000000000000000,
100000000000000000000000100000000000100000000000,
000000000000200000000000200000000000000000000000,
100000000000000000000000100000000000000000100000,
000000100000000000000000500000000000000000000000,
000000000000000000000000000000000000000000000008,
000000000000000000000000000000000000000000000000,
100000000000000000000000100000000000000000100000,
000000100000000000000000500000000000000000000000,
000000000000000000000000000000000000000000000000,
000000000000000000000008000000000000000000000000,
#GOGOEND
000000000000000000000000000000000000000000000000,
000000000000000000000000000000000000000000000000,
#END