forked from ESE/ESE
602 lines
19 KiB
Plaintext
602 lines
19 KiB
Plaintext
//TJADB Project
|
|
TITLE:Triangler
|
|
TITLEJA:トライアングラー
|
|
SUBTITLE:--Yoko Kanno feat. Maaya Sakamoto/Macross Frontier
|
|
SUBTITLEJA:「マクロスF」より
|
|
BPM:176
|
|
WAVE:Triangler.ogg
|
|
OFFSET:-1.312
|
|
DEMOSTART:77.668
|
|
|
|
COURSE:Oni
|
|
LEVEL:8
|
|
BALLOON:7,7
|
|
SCOREINIT:650
|
|
SCOREDIFF:160
|
|
|
|
|
|
#START
|
|
|
|
|
|
100000000000000000000000000000000000100000000000,
|
|
#BPMCHANGE 176
|
|
100000000000000000000000100000000000000000000000,
|
|
#BPMCHANGE 175.62
|
|
100000000000100000100000000000100000000000100000,
|
|
100000000000000000000000000000000000000000000000,
|
|
#BPMCHANGE 175.79
|
|
100000000000000000000000000000000000100000000000,
|
|
100000000000000000000000100000000000100000000000,
|
|
#BPMCHANGE 177.92
|
|
300000000000000000000000300000000000000000000000,
|
|
#BPMCHANGE 176.87
|
|
400000000000000000000000000000000000000000000000,
|
|
#BPMCHANGE 175.62
|
|
100000000000100000000000200000000000000000100000,
|
|
#BPMCHANGE 174.57
|
|
100000000000100000000000200000000000000000000000,
|
|
#BPMCHANGE 177.45
|
|
100000000000100000000000200000000000000000100000,
|
|
#BPMCHANGE 177.24
|
|
100000000000100000000000200000000000100000100100,
|
|
#BPMCHANGE 176.68
|
|
100000000000100000100000000000000000300000300000,
|
|
#BPMCHANGE 173.9
|
|
000000000000300000000000000000200200200000200000,
|
|
#BPMCHANGE 176.11
|
|
100000000000200000000000100000100000200000100100,
|
|
200000100000200000100100100000100000200000200200,
|
|
#BPMCHANGE 177.08
|
|
100000000000200000000000100000100000200000100100,
|
|
#BPMCHANGE 176.12
|
|
200000100000200000100100100000100000200000000000,
|
|
#BPMCHANGE 175.37
|
|
100000000000000000200000200000000000200000000000,
|
|
#BPMCHANGE 174.08
|
|
100000200000000000100000200000000000200000000000,
|
|
#BPMCHANGE 177.82
|
|
100000200200200000100000000000200000100000000000,
|
|
#BPMCHANGE 175.57
|
|
100000200200200000100000200000000000000000000000,
|
|
#BPMCHANGE 177.61
|
|
100000000000000000200000200000000000200000000000,
|
|
#BPMCHANGE 174.41
|
|
100000200000000000100000200000000000200000000000,
|
|
#BPMCHANGE 176.53
|
|
100000200200200000100000000000200000100000000000,
|
|
#BPMCHANGE 175.93
|
|
100000200200200000100000200000000000200000000000,
|
|
#BPMCHANGE 175.54
|
|
100000100000000000100000200000000000100000100100,
|
|
#BPMCHANGE 176.12
|
|
100000100000000000100000200000000000200000000000,
|
|
100000200200200000100000200200200000100000000000,
|
|
100000200200200000100000200000000000000000000000,
|
|
#BPMCHANGE 176.12
|
|
100000100000000000100000200000000000100000100100,
|
|
#BPMCHANGE 175.51
|
|
100000100000000000100000200000000000200000000000,
|
|
#BPMCHANGE 176
|
|
100000200200200000100000200200200000100000000000,
|
|
100000200200200000100000200000000000200000000000,
|
|
100000000000100000000000100000100100200000100000,
|
|
#BPMCHANGE 176.52
|
|
000000100000200000100000000000100000200000000000,
|
|
#BPMCHANGE 177.44
|
|
300000000000300000300000000000300000000000400000,
|
|
#BPMCHANGE 175.93
|
|
000000400000300000000000200200200000200200200000,
|
|
#BPMCHANGE 175.81
|
|
100000100000200000000200100000100000200000100100,
|
|
100000100000200000000200100000100000200000100000,
|
|
#BPMCHANGE 175.68
|
|
100000100000200000000200100000100000200000100100,
|
|
100000100000200000000200100000100000200000000000,
|
|
#BPMCHANGE 177.06
|
|
100000100000200000000200100000100000200000100100,
|
|
#BPMCHANGE 175.8
|
|
100000100000200000000200100000100000200000100000,
|
|
100000100100200000100100100000100100200000100100,
|
|
#BPMCHANGE 176.2
|
|
200200100100200000100000200200200000200200200000,
|
|
#BPMCHANGE 174.81
|
|
100000100000200000000200100000100000200000100100,
|
|
#BPMCHANGE 175.19
|
|
100000100000200000000200100000100000200000000000,
|
|
#BPMCHANGE 175.37
|
|
400000000000400000000000300000000000300000000000,
|
|
#BPMCHANGE 176.95
|
|
70000800,
|
|
#BPMCHANGE 176
|
|
300000000000300000000000400000000000400000000000,
|
|
70000800,
|
|
#BPMCHANGE 175.71
|
|
100000000000100000000000100000100100200000100000,
|
|
#BPMCHANGE 175.19
|
|
000000100000200000000000100000100000200000000000,
|
|
#BPMCHANGE 178.21
|
|
300000000000300000300000000000300000000000400000,
|
|
#BPMCHANGE 174.81
|
|
000000400000300000000000000000000000000000000000,
|
|
|
|
#GOGOSTART
|
|
#BPMCHANGE 176.73
|
|
100000100000200000000100100000100000200000100100,
|
|
#BPMCHANGE 175.51
|
|
100000100000200000000100100000100000200000100200,
|
|
#BPMCHANGE 176.49
|
|
100000100000200000000100100000100000200000100100,
|
|
#BPMCHANGE 175.39
|
|
100000100000200000000100100200100000200000000000,
|
|
#BPMCHANGE 174.61
|
|
100000100000200000000100100000100000200000100100,
|
|
#BPMCHANGE 177.41
|
|
100000100000200000000100100000100000200000100000,
|
|
#BPMCHANGE 175.03
|
|
100000100100200000100100100000100100200000100100,
|
|
#BPMCHANGE 177.24
|
|
200200100100200000100000200200200000200200200000,
|
|
#BPMCHANGE 175.74
|
|
100000100000200000000100100000100000200000100100,
|
|
#BPMCHANGE 176
|
|
100000100000200000000100100000100000200000100200,
|
|
100000100000200000000100100000100000200000100100,
|
|
#BPMCHANGE 175.8
|
|
100000100000200000000100100200100000200000100100,
|
|
#BPMCHANGE 176.68
|
|
100000100100200000100100100000100100200000300000,
|
|
#BPMCHANGE 175.93
|
|
000000000000300000000000000000000000000000600000,
|
|
#BPMCHANGE 176
|
|
000000000000000000000000000000000000000000000008,
|
|
|
|
|
|
#END
|
|
|
|
|
|
COURSE:Hard
|
|
LEVEL:6
|
|
SCOREINIT:670
|
|
SCOREDIFF:160
|
|
|
|
|
|
#START
|
|
|
|
|
|
100000000000000000000000000000000000100000000000,
|
|
#BPMCHANGE 176
|
|
100000000000000000000000100000000000000000000000,
|
|
#BPMCHANGE 175.62
|
|
100000000000100000100000000000100000000000100000,
|
|
100000000000000000000000000000000000000000000000,
|
|
#BPMCHANGE 175.79
|
|
100000000000000000000000000000000000100000000000,
|
|
100000000000000000000000100000000000100000000000,
|
|
#BPMCHANGE 177.92
|
|
300000000000000000000000300000000000000000000000,
|
|
#BPMCHANGE 176.87
|
|
400000000000000000000000000000000000000000000000,
|
|
#BPMCHANGE 175.62
|
|
100000000000100000000000200000000000000000100000,
|
|
#BPMCHANGE 174.57
|
|
100000000000100000000000200000000000000000000000,
|
|
#BPMCHANGE 177.45
|
|
100000000000100000000000200000000000000000100000,
|
|
#BPMCHANGE 177.24
|
|
100000000000100000000000200000000000100000100100,
|
|
#BPMCHANGE 176.68
|
|
100000000000100000100000000000000000300000300000,
|
|
#BPMCHANGE 173.9
|
|
000000000000300000000000000000000000000000000000,
|
|
#BPMCHANGE 176.11
|
|
100000000000100000000000100000100000200000100000,
|
|
000000100000200000100000000000100000200000000000,
|
|
#BPMCHANGE 177.08
|
|
100000000000100000000000100000100000200000100000,
|
|
#BPMCHANGE 176.12
|
|
000000100000200000100000000000000000000000000000,
|
|
#BPMCHANGE 175.37
|
|
100000000000000000200000200000000000200000000000,
|
|
#BPMCHANGE 174.08
|
|
100000200000000000100000200000000000200000000000,
|
|
#BPMCHANGE 177.82
|
|
100000000000100000100000000000100000100000000000,
|
|
#BPMCHANGE 175.57
|
|
100000200000000000100000200000000000000000000000,
|
|
#BPMCHANGE 177.61
|
|
100000000000000000200000200000000000200000000000,
|
|
#BPMCHANGE 174.41
|
|
100000200000000000100000200000000000200000000000,
|
|
#BPMCHANGE 176.53
|
|
100000000000100000100000000000100000100000000000,
|
|
#BPMCHANGE 175.93
|
|
100000200000000000100000200000000000000000000000,
|
|
#BPMCHANGE 175.54
|
|
100000000000000000000000100000000000100000100100,
|
|
#BPMCHANGE 176.12
|
|
100000000000100000000000200000000000200000000000,
|
|
100000000000000000100100100000000000200000000000,
|
|
100000200000100000000000200000000000000000000000,
|
|
#BPMCHANGE 176.12
|
|
100000000000000000000000100000000000100000100100,
|
|
#BPMCHANGE 175.51
|
|
100000000000100000000000200000000000200000000000,
|
|
#BPMCHANGE 176
|
|
100000000000000000100100100000000000200000000000,
|
|
100000200000100000000000200000000000000000000000,
|
|
100000000000100000000000100000100000200000100000,
|
|
#BPMCHANGE 176.52
|
|
000000100000200000100000000000100000200000000000,
|
|
#BPMCHANGE 177.44
|
|
300000000000300000300000000000300000000000400000,
|
|
#BPMCHANGE 175.93
|
|
000000400000300000000000200000000000200000000000,
|
|
#BPMCHANGE 175.81
|
|
100000100000200000000000100000100000200000100100,
|
|
100000100000200000100000200000000000200000000000,
|
|
#BPMCHANGE 175.68
|
|
100000100000200000000000100000100000200000100100,
|
|
100000100000200000100000200000000000200000100000,
|
|
#BPMCHANGE 177.06
|
|
100000100000200000000000100000100000200000100100,
|
|
#BPMCHANGE 175.8
|
|
100000100000200000100000200000000000200000000000,
|
|
100000100100100000000000100000100100100000000000,
|
|
#BPMCHANGE 176.2
|
|
100000100000200000000000200000000000000000000000,
|
|
#BPMCHANGE 174.81
|
|
100000100000200000000000100000100000200000100100,
|
|
#BPMCHANGE 175.19
|
|
100000100000200000100000200000000000200000000000,
|
|
#BPMCHANGE 175.37
|
|
400000000000400000000000100000000000100000000000,
|
|
#BPMCHANGE 176.95
|
|
500000000000000000000000000000000800000000000000,
|
|
#BPMCHANGE 176
|
|
100000000000100000000000400000000000400000000000,
|
|
500000000000000000000000000000000800000000000000,
|
|
#BPMCHANGE 175.71
|
|
100000000000100000000000100000100000200000100000,
|
|
#BPMCHANGE 175.19
|
|
000000100000200000000000100000100000200000000000,
|
|
#BPMCHANGE 178.21
|
|
300000000000300000300000000000300000000000400000,
|
|
#BPMCHANGE 174.81
|
|
000000400000300000000000000000000000000000000000,
|
|
|
|
#GOGOSTART
|
|
#BPMCHANGE 176.73
|
|
100000100000200000000000100000100000200000100100,
|
|
#BPMCHANGE 175.51
|
|
100000100000200000000000100000100000200000100000,
|
|
#BPMCHANGE 176.49
|
|
100000100000200000000000100000100000200000100100,
|
|
#BPMCHANGE 175.39
|
|
100000100000200000100000200000000000200000000000,
|
|
#BPMCHANGE 174.61
|
|
100000100000200000000000100000100000200000100100,
|
|
#BPMCHANGE 177.41
|
|
100000100000200000000000100000100000200000100000,
|
|
#BPMCHANGE 175.03
|
|
100000100000200000000000100000100000200000100000,
|
|
#BPMCHANGE 177.24
|
|
000000100000200000100000000000200200200000000000,
|
|
#BPMCHANGE 175.74
|
|
100000100000200000000000100000100000200000100100,
|
|
#BPMCHANGE 176
|
|
100000100000200000000000100000100000200000100000,
|
|
100000100000200000000000100000100000200000100100,
|
|
#BPMCHANGE 175.8
|
|
100000100000200000100000200000000000100000100100,
|
|
#BPMCHANGE 176.68
|
|
100000000000100000100000000000000000300000300000,
|
|
100000100100200000100100100000100100200000300000,
|
|
#BPMCHANGE 175.93
|
|
000000000000300000000000000000000000000000000000,
|
|
#BPMCHANGE 176
|
|
600000000000000000000000000000000000000000000008,
|
|
|
|
#GOGOEND
|
|
|
|
|
|
#END
|
|
|
|
|
|
COURSE:Normal
|
|
LEVEL:4
|
|
BALLOON:5,5,12
|
|
SCOREINIT:1180
|
|
SCOREDIFF:360
|
|
|
|
|
|
#START
|
|
|
|
|
|
100000000000000000000000000000000000000000000000,
|
|
#BPMCHANGE 176
|
|
100000000000000000000000000000000000000000000000,
|
|
#BPMCHANGE 175.62
|
|
100000000000000000000000100000000000000000000000,
|
|
100000000000000000000000000000000000000000000000,
|
|
#BPMCHANGE 175.79
|
|
100000000000000000000000000000000000000000000000,
|
|
100000000000000000000000000000000000000000000000,
|
|
#BPMCHANGE 177.92
|
|
300000000000000000000000300000000000000000000000,
|
|
#BPMCHANGE 176.87
|
|
300000000000000000000000000000000000000000000000,
|
|
#BPMCHANGE 175.62
|
|
100000000000100000000000000000000000000000000000,
|
|
#BPMCHANGE 174.57
|
|
100000000000000000000000000000000000000000000000,
|
|
#BPMCHANGE 177.45
|
|
100000000000100000000000000000000000000000000000,
|
|
#BPMCHANGE 177.24
|
|
100000000000000000000000000000000000000000000000,
|
|
#BPMCHANGE 176.68
|
|
100000000000100000000000100000000000000000300000,
|
|
#BPMCHANGE 173.9
|
|
000000000000300000000000000000000000000000600000,
|
|
#BPMCHANGE 176.11
|
|
000000000000000000000000000000000000000000800000,
|
|
000000000000000000000000000000000000000000000000,
|
|
#BPMCHANGE 177.08
|
|
000000000000000000000000000000000000000000000000,
|
|
#BPMCHANGE 176.12
|
|
000000000000000000000000000000000000000000000000,
|
|
#BPMCHANGE 175.37
|
|
100000000000000000000000100000000000000000000000,
|
|
#BPMCHANGE 174.08
|
|
100000000000000000000000000000000000000000000000,
|
|
#BPMCHANGE 177.82
|
|
200000000000000000000000200000000000000000000000,
|
|
#BPMCHANGE 175.57
|
|
200000000000000000000000000000000000000000000000,
|
|
#BPMCHANGE 177.61
|
|
100000000000000000000000100000000000000000000000,
|
|
#BPMCHANGE 174.41
|
|
100000000000000000000000000000000000000000000000,
|
|
#BPMCHANGE 176.53
|
|
200000000000000000000000200000000000000000000000,
|
|
#BPMCHANGE 175.93
|
|
200000000000000000000000000000000000000000000000,
|
|
#BPMCHANGE 175.54
|
|
100000000000000000000000100000000000100000000000,
|
|
#BPMCHANGE 176.12
|
|
100000000000000000000000000000000000000000000000,
|
|
100000000000000000000000100000000000000000000000,
|
|
100000000000000000000000000000000000000000000000,
|
|
#BPMCHANGE 176.12
|
|
100000000000000000000000100000000000100000000000,
|
|
#BPMCHANGE 175.51
|
|
100000000000000000000000000000000000000000000000,
|
|
#BPMCHANGE 176
|
|
200000000000000000000000200000000000000000000000,
|
|
200000000000000000000000000000000000000000000000,
|
|
100000000000000000000000100000000000000000000000,
|
|
#BPMCHANGE 176.52
|
|
100000000000100000000000100000000000000000000000,
|
|
#BPMCHANGE 177.44
|
|
500000000000000000000000000000000000000000800000,
|
|
#BPMCHANGE 175.93
|
|
000000000000300000000000000000000000000000000000,
|
|
#BPMCHANGE 175.81
|
|
000000000000100000000000000000000000100000000000,
|
|
000000000000100000000000100000000000100000000000,
|
|
#BPMCHANGE 175.68
|
|
000000000000100000000000000000000000100000000000,
|
|
000000000000100000000000100000000000100000000000,
|
|
#BPMCHANGE 177.06
|
|
000000000000100000000000000000000000100000000000,
|
|
#BPMCHANGE 175.8
|
|
000000000000100000000000100000000000100000000000,
|
|
000000000000100000000000000000000000100000000000,
|
|
#BPMCHANGE 176.2
|
|
000000000000200000000000200000000000000000000000,
|
|
#BPMCHANGE 174.81
|
|
000000000000100000000000000000000000100000000000,
|
|
#BPMCHANGE 175.19
|
|
000000000000100000000000100000000000100000000000,
|
|
#BPMCHANGE 175.37
|
|
300000000000000000000000100000000000100000000000,
|
|
#BPMCHANGE 176.95
|
|
700000000000000000000000800000000000000000000000,
|
|
#BPMCHANGE 176
|
|
100000000000000000000000100000000000100000000000,
|
|
700000000000000000000000800000000000000000000000,
|
|
#BPMCHANGE 175.71
|
|
100000000000000000000000100000000000000000000000,
|
|
#BPMCHANGE 175.19
|
|
100000000000100000000000100000000000000000000000,
|
|
#BPMCHANGE 178.21
|
|
500000000000000000000000000000000000000000800000,
|
|
#BPMCHANGE 174.81
|
|
000000000000300000000000000000000000000000000000,
|
|
|
|
#GOGOSTART
|
|
#BPMCHANGE 176.73
|
|
100000000000100000000000100000000000000000000000,
|
|
#BPMCHANGE 175.51
|
|
100000000000100000000000100000000000000000000000,
|
|
#BPMCHANGE 176.49
|
|
100000000000100000100000000000100000000000100000,
|
|
#BPMCHANGE 175.39
|
|
100000000000000000000000000000000000200000000000,
|
|
#BPMCHANGE 174.61
|
|
100000000000100000000000100000000000000000000000,
|
|
#BPMCHANGE 177.41
|
|
100000000000100000000000100000000000000000000000,
|
|
#BPMCHANGE 175.03
|
|
300000000000000000000000300000000000000000000000,
|
|
#BPMCHANGE 177.24
|
|
300000000000000000000000000000000000200000000000,
|
|
#BPMCHANGE 175.74
|
|
100000000000100000000000100000000000000000000000,
|
|
#BPMCHANGE 176
|
|
100000000000100000000000100000000000000000000000,
|
|
100000000000100000100000000000100000000000100000,
|
|
#BPMCHANGE 175.8
|
|
100000000000000000000000000000000000200000000000,
|
|
#BPMCHANGE 176.68
|
|
100000000000100000000000100000000000000000300000,
|
|
#BPMCHANGE 175.93
|
|
000000000000300000000000000000000000000000900000,
|
|
#BPMCHANGE 176
|
|
,
|
|
08,
|
|
|
|
#GOGOEND
|
|
|
|
|
|
#END
|
|
|
|
|
|
COURSE:Easy
|
|
LEVEL:4
|
|
BALLOON:7
|
|
SCOREINIT:900
|
|
SCOREDIFF:290
|
|
|
|
|
|
#START
|
|
|
|
|
|
100000000000000000000000000000000000000000000000,
|
|
#BPMCHANGE 176
|
|
100000000000000000000000000000000000000000000000,
|
|
#BPMCHANGE 175.62
|
|
100000000000000000000000100000000000000000000000,
|
|
100000000000000000000000000000000000000000000000,
|
|
#BPMCHANGE 175.79
|
|
100000000000000000000000000000000000000000000000,
|
|
100000000000000000000000000000000000000000000000,
|
|
#BPMCHANGE 177.92
|
|
300000000000000000000000300000000000000000000000,
|
|
#BPMCHANGE 176.87
|
|
300000000000000000000000000000000000000000000000,
|
|
#BPMCHANGE 175.62
|
|
100000000000100000000000000000000000000000000000,
|
|
#BPMCHANGE 174.57
|
|
100000000000000000000000000000000000000000000000,
|
|
#BPMCHANGE 177.45
|
|
100000000000100000000000000000000000000000000000,
|
|
#BPMCHANGE 177.24
|
|
100000000000000000000000000000000000000000000000,
|
|
#BPMCHANGE 176.68
|
|
100000000000100000000000100000000000000000300000,
|
|
#BPMCHANGE 173.9
|
|
000000000000300000000000000000000000000000600000,
|
|
#BPMCHANGE 176.11
|
|
000000000000000000000000000000000000000000800000,
|
|
000000000000000000000000000000000000000000000000,
|
|
#BPMCHANGE 177.08
|
|
000000000000000000000000000000000000000000000000,
|
|
#BPMCHANGE 176.12
|
|
000000000000000000000000000000000000000000000000,
|
|
#BPMCHANGE 175.37
|
|
100000000000000000000000100000000000000000000000,
|
|
#BPMCHANGE 174.08
|
|
100000000000000000000000000000000000000000000000,
|
|
#BPMCHANGE 177.82
|
|
100000000000000000000000000000000000000000000000,
|
|
#BPMCHANGE 175.57
|
|
100000000000000000000000000000000000000000000000,
|
|
#BPMCHANGE 177.61
|
|
100000000000000000000000100000000000000000000000,
|
|
#BPMCHANGE 174.41
|
|
100000000000000000000000000000000000000000000000,
|
|
#BPMCHANGE 176.53
|
|
100000000000000000000000000000000000000000000000,
|
|
#BPMCHANGE 175.93
|
|
100000000000000000000000000000000000000000000000,
|
|
#BPMCHANGE 175.54
|
|
100000000000000000000000100000000000100000000000,
|
|
#BPMCHANGE 176.12
|
|
100000000000000000000000000000000000000000000000,
|
|
100000000000000000000000100000000000000000000000,
|
|
100000000000000000000000000000000000000000000000,
|
|
#BPMCHANGE 176.12
|
|
100000000000000000000000100000000000100000000000,
|
|
#BPMCHANGE 175.51
|
|
100000000000000000000000000000000000000000000000,
|
|
#BPMCHANGE 176
|
|
100000000000000000000000100000000000000000000000,
|
|
100000000000000000000000000000000000000000000000,
|
|
100000000000000000000000100000000000000000000000,
|
|
#BPMCHANGE 176.52
|
|
100000000000100000000000100000000000000000000000,
|
|
#BPMCHANGE 177.44
|
|
500000000000000000000000000000000000800000000000,
|
|
#BPMCHANGE 175.93
|
|
000000000000300000000000000000000000000000000000,
|
|
#BPMCHANGE 175.81
|
|
000000000000100000000000000000000000100000000000,
|
|
000000000000100000000000100000000000100000000000,
|
|
#BPMCHANGE 175.68
|
|
000000000000100000000000000000000000100000000000,
|
|
000000000000100000000000100000000000100000000000,
|
|
#BPMCHANGE 177.06
|
|
000000000000100000000000000000000000100000000000,
|
|
#BPMCHANGE 175.8
|
|
000000000000100000000000100000000000100000000000,
|
|
000000000000100000000000000000000000100000000000,
|
|
#BPMCHANGE 176.2
|
|
000000000000100000000000100000000000000000000000,
|
|
#BPMCHANGE 174.81
|
|
000000000000100000000000000000000000100000000000,
|
|
#BPMCHANGE 175.19
|
|
000000000000100000000000100000000000100000000000,
|
|
#BPMCHANGE 175.37
|
|
000000000000000000000000100000000000100000000000,
|
|
#BPMCHANGE 176.95
|
|
500000000000000000000000800000000000000000000000,
|
|
#BPMCHANGE 176
|
|
000000000000000000000000100000000000100000000000,
|
|
500000000000000000000000800000000000000000000000,
|
|
#BPMCHANGE 175.71
|
|
100000000000000000000000100000000000000000000000,
|
|
#BPMCHANGE 175.19
|
|
100000000000100000000000100000000000000000000000,
|
|
#BPMCHANGE 178.21
|
|
500000000000000000000000000000000000800000000000,
|
|
#BPMCHANGE 174.81
|
|
000000000000300000000000000000000000000000000000,
|
|
|
|
#GOGOSTART
|
|
#BPMCHANGE 176.73
|
|
100000000000000000000000100000000000000000000000,
|
|
#BPMCHANGE 175.51
|
|
100000000000100000000000100000000000000000000000,
|
|
#BPMCHANGE 176.49
|
|
100000000000000000000000100000000000000000000000,
|
|
#BPMCHANGE 175.39
|
|
100000000000000000000000000000000000000000000000,
|
|
#BPMCHANGE 174.61
|
|
100000000000000000000000100000000000000000000000,
|
|
#BPMCHANGE 177.41
|
|
100000000000100000000000100000000000000000000000,
|
|
#BPMCHANGE 175.03
|
|
300000000000000000000000300000000000000000000000,
|
|
#BPMCHANGE 177.24
|
|
300000000000000000000000000000000000000000000000,
|
|
#BPMCHANGE 175.74
|
|
100000000000000000000000100000000000000000000000,
|
|
#BPMCHANGE 176
|
|
100000000000100000000000100000000000000000000000,
|
|
100000000000000000000000100000000000000000000000,
|
|
#BPMCHANGE 175.8
|
|
100000000000000000000000000000000000000000000000,
|
|
#BPMCHANGE 176.68
|
|
100000000000100000000000100000000000000000300000,
|
|
#BPMCHANGE 175.93
|
|
000000000000300000000000000000000000000000000000,
|
|
#BPMCHANGE 176
|
|
9,
|
|
08,
|
|
|
|
#GOGOEND
|
|
|
|
|
|
#END
|
|
|