Files
2023-01-17 00:45:18 -05:00

356 lines
14 KiB
Plaintext

//TJADB Project
TITLE:Tutti!
TITLEJA:トゥッティ!
SUBTITLE:--Kitauji Quartet/Sound! Euphonium
SUBTITLEJA:「響け!ユーフォニアム」より
BPM:194
WAVE:Tutti!.ogg
OFFSET:-2.825
DEMOSTART:58.482
COURSE:Oni
LEVEL:7
BALLOON:7,24
SCOREINIT:640
SCOREDIFF:170
#START
300000000000300000000000100000200000000000200000,
000000200000000000200000000000200000200000200000,
300000000000300000000000400000400000000000300000,
000000000000600000000000000000000000000008000000,
100000000000200000100000000000100000200000200000,
100000000000200000100000000000100000200000200000,
100000000000100000200000000000200000200000200000,
100000000000100000200000000000200000200000200000,
100000000000200000100000000000100000200000200000,
100000000000200000100000000000100000200000200000,
100000000000200000100000000000100000200000200000,
300000000300000000300000300000100100200000000000,
100000200000100000200000100000200000100100200000,
100000200000100000200000100000100100100000000000,
100000200000100000200000100000200000100100200000,
100000200000100000200000100000100100100000100000,
500000000000000000000000000000000000000000000000,
000000000008000000000000000000100000100000100000,
100000200000000000200000100000200000000000200000,
300000000000300000000000400000100100100000100000,
100000200000100000200000100000200000100100200000,
100000200000100000200000100000100100100000000000,
100000200000100000200000100000200000100100200000,
100000200000100000200000100000100100100000100000,
500000000000000000000000000000000000000000000000,
000000000008000000000000100100100000100000000000,
100100100000000000100000100100100000000000100000,
300000300000000000400000000000400000000000000000,
100000200000100000200200100000200000100000000000,
100000200000100000200200100000200000100000000000,
100000100000000000100100100000100000000000100100,
100000100000200000200000200200200000200000000000,
100000200000100000200200100000200000100000000000,
100000200000100000200200100000200000100000000000,
100000100000000000100100100000100000000000100100,
100000100000200000200000000000200200200000200000,
100000000000200000100000200200100000200000200000,
100000000000200000100000200200100000200000000000,
700000000000000000000000800000000000100000100000,
100000000000000000000000100000000000100000000000,
300000300000000000400000000000400000000000400000,
000000000000300000000000300000000000300000000000,
700000000000000000000000000000000000000000000000,
000000000000000000000000000000000000800000000000,
000000000000000000000000000000000000000000000000,
#GOGOSTART
100000200000100000200200100000200000100000200200,
100000200000100000200200100000100100100000100000,
100000200000100000200200100000200000100000200200,
100000200000100000200200100000200200200000200000,
100000200000100000200200100000200000100000200200,
100000200000000000200200200000200000100000000000,
300000000000300000000000300000000000000000400000,
000000000000300000000000300000000000000000000000,
100000200000100000200200100000200000100000200200,
100000200000100000200200100000100100100000100000,
100000200000100000200200100000200000100000200000,
000000200000200200100000000000100000200000200000,
300000300000000000200000100100100000200000200000,
100100100000200000200000100100100000200000200000,
300000300000000000200000100100100000200000200000,
100100100000200000200000100100100000200000200000,
500000000000000000000000000000000000000000000000,
000000000000000000000000000000000008000000000000,
100000200200100000200000100000200200100000200000,
100000200200100000200200100000100000200200200000,
300000000000300000000000400000400000000000300000,
000000300000000000300000000000100000100000100000,
400000000000400000000000300000300000000000300000,
000000000000400000000000000000000000000000000000,
#GOGOEND
#END
COURSE:Hard
LEVEL:4
BALLOON:6,17,18
SCOREINIT:710
SCOREDIFF:205
#START
300000000000300000000000400000400000000000300000,
000000300000000000300000000000000000000000000000,
400000000000400000000000300000300000000000300000,
000000000000600000000000000000000000800000000000,
100000000000100000100000000000100000100000000000,
100000000000100000100000000000100000100000000000,
100000000000100000100000000000100000100000000000,
100000000000100000100000000000200000200000200000,
100000000000100000100000000000100000100000000000,
100000000000100000100000000000100000100000000000,
100000000000100000100000000000100000100000000000,
300000000300000000300000300000000000000000000000,
100000200000000000200000100000200000000000200000,
100000200000000000200000100000000000100000000000,
100000200000000000200000100000200000000000200000,
100000200000000000200000100000100000000000000000,
500000000000000000000000000000000000000000000000,
000000800000000000000000000000000000000000000000,
100000000000000000100000100000000000000000300000,
300000000000300000000000400000000000000000000000,
100000200000000000200000100000200000000000200000,
100000200000000000200000100000000000100000000000,
100000200000000000200000100000200000000000200000,
100000200000000000200000100000100000000000000000,
500000000000000000000000000000000000000000000000,
000000800000000000000000100000000000100000000000,
300000000000000000000000300000000000000000000000,
400000000000000000000000400000000000000000000000,
100000200000000000200000000000200000000000200000,
100000200000000000200000000000200000000000200000,
100000100000000000100000000000100000000000100000,
100000100000000000100000000000100000000000100000,
100000200000000000200000000000200000000000200000,
100000200000000000200000000000200000000000200000,
100000100000000000100000000000100000000000100000,
500000000000000000000000000000800000000000000000,
100000000000200000100000100000000000200000200000,
100000000000200000100000100000000000200000000000,
700000000000000000800000000000000000100000100000,
100000000000000000000000100000000000100000000000,
300000300000000000400000000000400000000000400000,
000000000000300000000000300000000000300000000000,
900000000000000000000000000000000000000000000000,
000000000000000000000000000000000000800000000000,
000000000000000000000000000000000000000000000000,
#GOGOSTART
100000000000200000000000100000100000200000100000,
000000100000200000100000000000000000000000000000,
100000000000200000000000100000100000200000200000,
000000200000200000100000000000000000200000200000,
100000000000200000000000100000100000200000100000,
000000200000000000200000000000200000100000000000,
300000000000300000000000300000000000000000400000,
000000000000300000000000300000000000000000000000,
100000000000200000000000100000100000200000100000,
000000100000200000100000000000000000000000000000,
100000000000200000000000100000100000200000200000,
000000200000200000100000000000000000000000000000,
300000300000000000000000100000100000200000000000,
100000000000200000000000100000100000200000200000,
300000300000000000000000400000000000000000000000,
400000000000000000000000300000000000000000000000,
500000000000000000000000000000000000000000000000,
000000000000000000000000000000800000000000000000,
700000000000000000000000000000000000000000000000,
000000000000000000000000000000800000000000000000,
300000000000300000000000400000400000000000300000,
000000300000000000300000000000000000000000000000,
400000000000400000000000300000300000000000300000,
000000000000400000000000000000000000000000000000,
#GOGOEND
#END
COURSE:Normal
LEVEL:4
BALLOON:4,14,12
SCOREINIT:980
SCOREDIFF:410
#START
300000000000300000000000000000000000000000300000,
000000300000000000300000000000000000000000000000,
300000000000300000000000300000000000000000300000,
000000000000400000000000000000000000000000000000,
100000000000000000000000100000000000000000000000,
100000000000000000000000100000000000100000000000,
500000000000000000000000000000000000000000000000,
000000000000000000000000000000000000800000000000,
000000000000000000000000100000000000000000000000,
100000000000000000000000100000000000100000000000,
500000000000000000000000000000000000800000000000,
000000000000000000000000000000000000000000000000,
100000000000100000000000100000000000000000000000,
100000000000000000000000200000000000000000000000,
100000000000100000000000100000000000000000000000,
100000000000000000000000200000000000000000000000,
500000000000000000000000000000000000000000000000,
800000000000000000000000000000000000000000000000,
100000000000000000000000100000000000000000000000,
300000000000300000000000300000000000000000000000,
100000000000100000000000100000000000000000000000,
100000000000000000000000200000000000000000000000,
100000000000100000000000100000000000000000000000,
100000000000000000000000200000000000000000000000,
500000000000000000000000000000000000800000000000,
000000000000000000000000000000000000000000000000,
300000000000000000000000300000000000000000000000,
400000000000000000000000400000000000000000000000,
100000000000100000000000100000000000000000000000,
100000000000100000000000100000000000000000000000,
500000000000000000000000000000000000000000000000,
000000000000000000000000800000000000000000000000,
200000000000200000000000200000000000000000000000,
200000000000200000000000200000000000000000000000,
500000000000000000000000000000000000000000000000,
000000000000800000000000000000000000000000000000,
100000000000100000000000100000000000000000000000,
200000000000200000000000200000000000200000000000,
700000000000000000800000000000000000000000000000,
300000000000000000000000000000000000000000000000,
300000000000000000400000000000400000000000400000,
000000000000300000000000300000000000300000000000,
900000000000000000000000000000000000000000000000,
000000000000000000000000000000000000800000000000,
000000000000000000000000000000000000000000000000,
#GOGOSTART
100000000000100000000000100000000000100000000000,
100000000000100000000000000000000000000000000000,
200000000000200000000000200000000000200000000000,
200000000000200000000000000000000000000000000000,
100000000000100000000000100000000000000000000000,
100000000000100000000000100000000000000000000000,
300000000000300000000000300000000000000000400000,
000000000000300000000000300000000000000000000000,
100000000000100000000000100000000000100000000000,
100000000000100000000000000000000000000000000000,
200000000000200000000000200000000000200000000000,
500000000000000000000000000000000000800000000000,
000000000000000000000000300000000000000000000000,
300000000000000000000000300000000000000000000000,
000000000000000000000000400000000000000000000000,
400000000000000000000000400000000000000000000000,
500000000000000000000000000000000000000000000000,
000000000000000000000000800000000000000000000000,
700000000000000000000000000000000000000000000000,
000000000000000000000000800000000000000000000000,
300000000000300000000000000000000000000000300000,
000000300000000000300000000000000000000000000000,
400000000000400000000000400000000000000000300000,
000000000000400000000000000000000000000000000000,
#GOGOEND
#END
COURSE:Easy
LEVEL:3
BALLOON:3,11,10
SCOREINIT:800
SCOREDIFF:480
#START
300000000000000000000000000000000000000000300000,
000000000000000000300000000000000000000000000000,
300000000000300000000000000000000000000000300000,
000000000000400000000000000000000000000000000000,
000000000000000000000000100000000000000000000000,
100000000000000000000000100000000000000000000000,
500000000000000000000000000000000000000000000000,
000000000000000000000000000000000000800000000000,
000000000000000000000000100000000000000000000000,
100000000000000000000000100000000000000000000000,
500000000000000000000000000000000000800000000000,
000000000000000000000000000000000000000000000000,
100000000000000000000000100000000000000000000000,
100000000000000000000000000000000000000000000000,
100000000000000000000000100000000000000000000000,
100000000000000000000000100000000000000000000000,
500000000000000000000000000000000000000000000000,
800000000000000000000000000000000000000000000000,
100000000000000000000000100000000000000000000000,
300000000000300000000000300000000000000000000000,
100000000000000000000000100000000000000000000000,
100000000000000000000000000000000000000000000000,
100000000000000000000000100000000000000000000000,
100000000000000000000000100000000000000000000000,
500000000000000000000000000000000000800000000000,
000000000000000000000000000000000000000000000000,
300000000000000000000000300000000000000000000000,
400000000000000000000000400000000000000000000000,
000000000000000000000000100000000000000000000000,
100000000000000000000000100000000000000000000000,
500000000000000000000000000000000000000000000000,
000000000000000000000000800000000000000000000000,
000000000000000000000000200000000000000000000000,
200000000000000000000000200000000000000000000000,
500000000000000000000000000000000000000000000000,
000000000000800000000000000000000000000000000000,
100000000000000000000000100000000000000000000000,
100000000000000000000000100000000000000000000000,
700000000000000000800000000000000000000000000000,
300000000000000000000000000000000000000000000000,
300000000000000000000000000000000000000000300000,
000000000000300000000000300000000000300000000000,
900000000000000000000000000000000000000000000000,
000000000000000000000000000000000000800000000000,
000000000000000000000000000000000000000000000000,
#GOGOSTART
100000000000000000000000100000000000000000000000,
100000000000100000000000000000000000000000000000,
200000000000000000000000200000000000000000000000,
200000000000200000000000000000000000000000000000,
100000000000000000000000100000000000000000000000,
100000000000000000000000100000000000000000000000,
300000000000300000000000300000000000000000300000,
000000000000300000000000300000000000000000000000,
100000000000000000000000100000000000000000000000,
100000000000100000000000000000000000000000000000,
200000000000000000000000200000000000000000000000,
500000000000000000000000000000000000800000000000,
000000000000000000000000300000000000000000000000,
300000000000000000000000300000000000000000000000,
000000000000000000000000400000000000000000000000,
400000000000000000000000400000000000000000000000,
500000000000000000000000000000000000000000000000,
000000000000000000000000800000000000000000000000,
700000000000000000000000000000000000000000000000,
000000000000000000000000800000000000000000000000,
300000000000300000000000000000000000000000300000,
000000000000000000300000000000000000000000000000,
300000000000300000000000000000000000000000300000,
000000000000400000000000000000000000000000000000,
#GOGOEND
#END