forked from ESE/ESE
361 lines
9.8 KiB
Plaintext
361 lines
9.8 KiB
Plaintext
//TJADB Project
|
|
TITLE:Ultraman Max
|
|
TITLEJA:ウルトラマンマックス
|
|
SUBTITLE:--TEAM DASH feat. Project DMM/Ultraman Max
|
|
BPM:170
|
|
WAVE:Ultraman Max.ogg
|
|
OFFSET:-1.602
|
|
DEMOSTART:45.352
|
|
|
|
COURSE:Oni
|
|
LEVEL:5
|
|
BALLOON:14
|
|
SCOREINIT:850
|
|
SCOREDIFF:230
|
|
|
|
|
|
#START
|
|
|
|
|
|
#SCROLL 1.2
|
|
30030030,
|
|
1010101000112000,
|
|
30030030,
|
|
1010101000112000,
|
|
11111070,
|
|
0008,
|
|
1110111011101000,
|
|
10110110,
|
|
20220220,
|
|
10110110,
|
|
20220111,
|
|
500000000000000000000008000000000000200000000000,
|
|
500000000000000000000008000000000000200000000000,
|
|
10110110,
|
|
1020001020112000,
|
|
|
|
#SECTION
|
|
#BRANCHSTART p,75,90
|
|
#N
|
|
10110110,
|
|
20220220,
|
|
10110110,
|
|
20220111,
|
|
500000000000000000000008000000000000200000000000,
|
|
500000000000000000000008000000000000200000000000,
|
|
10110110,
|
|
1110001110002220,
|
|
30000222,
|
|
30000222,
|
|
30040040,
|
|
3000003000202222,
|
|
20112012,
|
|
01121120,
|
|
11211210,
|
|
2220002220000000,
|
|
#GOGOSTART
|
|
30030030,
|
|
|
|
#E
|
|
1000111000111000,
|
|
2000222000222000,
|
|
1000111000111000,
|
|
2000222000101010,
|
|
500000000000000000000008000000000000200000000000,
|
|
500000000000000000000008000000000000200000000000,
|
|
1000111000111000,
|
|
1111101111102220,
|
|
30220222,
|
|
30220222,
|
|
30040040,
|
|
3000003000202222,
|
|
20112012,
|
|
01121120,
|
|
11211210,
|
|
2220002220000000,
|
|
#GOGOSTART
|
|
30030030,
|
|
|
|
#M
|
|
1000111000101110,
|
|
2000222000202220,
|
|
1000111000101110,
|
|
2000222000101010,
|
|
500000000000000000000008000000000000200000000000,
|
|
500000000000000000000008000000000000200000000000,
|
|
1000111000101110,
|
|
1111101111102220,
|
|
30220222,
|
|
3000202000202220,
|
|
30240242,
|
|
30000003000202222,
|
|
20112212,
|
|
0010102010112000,
|
|
1010201010221000,
|
|
2220002220000000,
|
|
#GOGOSTART
|
|
30030030,
|
|
|
|
#SECTION
|
|
#BRANCHSTART p,75,90
|
|
#N
|
|
1010101000222000,
|
|
30030030,
|
|
1010101000222000,
|
|
#GOGOEND
|
|
1000101000102220,
|
|
1000101000102220,
|
|
21121122,
|
|
1110002220002220,
|
|
#GOGOSTART
|
|
30030030,
|
|
1010101000222000,
|
|
30030030,
|
|
1010101000222000,
|
|
#GOGOEND
|
|
1111106,
|
|
,
|
|
000000000000000000000000000000000008000000000000,
|
|
33300000,
|
|
|
|
#E
|
|
1010101000112000,
|
|
30030030,
|
|
1010101000112000,
|
|
#GOGOEND
|
|
1000101000102220,
|
|
1000101000102220,
|
|
21121122,
|
|
1110002220102220,
|
|
#GOGOSTART
|
|
30030030,
|
|
1020111000222000,
|
|
30030030,
|
|
2011102000222000,
|
|
#GOGOEND
|
|
1111106,
|
|
,
|
|
000000000000000000000000000000000008000000000000,
|
|
33300000,
|
|
|
|
#M
|
|
1010222000102220,
|
|
30030030,
|
|
1011101000102220,
|
|
#GOGOEND
|
|
1000111000102222,
|
|
1000111000102222,
|
|
2010102010102220,
|
|
1110002220102220,
|
|
#GOGOSTART
|
|
32032032,
|
|
1020111000102220,
|
|
32032032,
|
|
2011102000202220,
|
|
#GOGOEND
|
|
1111106,
|
|
,
|
|
000000000000000000000000000000000008000000000000,
|
|
33300000,
|
|
|
|
#BRANCHEND
|
|
|
|
|
|
#END
|
|
|
|
|
|
COURSE:Hard
|
|
LEVEL:3
|
|
BALLOON:14,20
|
|
SCOREINIT:810
|
|
SCOREDIFF:330
|
|
|
|
|
|
#START
|
|
|
|
|
|
300000000000000000300000000000000000300000000000,
|
|
100000100000100000100000000000100000100000000000,
|
|
300000000000000000300000000000000000300000000000,
|
|
100000100000100000100000000000100000100000000000,
|
|
100000100000100000100000100000000000700000000000,
|
|
000000000000000000000000000000000000000000800000,
|
|
000000000000000000000000000000000000000000000000,
|
|
000000000000100000100000100000000000200000100000,
|
|
100000100000500000000000000000800000000000000000,
|
|
000000000000100000100000100000000000200000100000,
|
|
100000100000500000000000000000800000000000000000,
|
|
000000000000200000200000200000000000200000000000,
|
|
000000000000200000200000200000000000200000000000,
|
|
300000000000000000300000000000000000400000000000,
|
|
300000000000000000300000000000000000400000000000,
|
|
000000000000100000100000100000000000200000100000,
|
|
100000100000500000000000000000800000000000000000,
|
|
000000000000100000100000100000000000200000100000,
|
|
100000100000500000000000000000800000000000000000,
|
|
000000000000200000200000200000000000200000000000,
|
|
000000000000200000200000200000000000200000000000,
|
|
300000000000000000300000000000000000400000000000,
|
|
300000000000000000300000000000000000400000000000,
|
|
500000000000800000000000000000000000200000000000,
|
|
500000000000800000000000000000000000200000000000,
|
|
100000000000000000100000000000000000200000000000,
|
|
100000000000000000100000000000200000200000200000,
|
|
000000000000100000100000100000000000100000100000,
|
|
000000200000000000200000200000000000200000000000,
|
|
100000000000000000100000000000000000100000100000,
|
|
500000000000000000000000000000800000000000000000,
|
|
#GOGOSTART
|
|
300000000000000000300000000000000000300000000000,
|
|
100000100000100000100000000000200000200000000000,
|
|
300000000000000000300000000000000000300000000000,
|
|
100000100000100000100000000000200000200000000000,
|
|
#GOGOEND
|
|
100000000000100000100000000000200000200000000000,
|
|
100000000000100000100000000000200000200000000000,
|
|
500000000000000000000000800000000000000000000000,
|
|
200000100000100000200000100000100000200000000000,
|
|
#GOGOSTART
|
|
300000000000000000300000000000000000300000000000,
|
|
100000100000100000100000000000200000200000000000,
|
|
300000000000000000300000000000000000300000000000,
|
|
100000100000100000100000000000200000200000000000,
|
|
#GOGOEND
|
|
100000100000100000100000100000000000900000000000,
|
|
000000000000000000000000000000000000000000000000,
|
|
000000000000000000000000000000000000800000000000,
|
|
|
|
|
|
#END
|
|
|
|
|
|
COURSE:Normal
|
|
LEVEL:2
|
|
BALLOON:8,10
|
|
SCOREINIT:1660
|
|
SCOREDIFF:700
|
|
|
|
|
|
#START
|
|
|
|
|
|
300000000000000000300000000000000000300000000000,
|
|
000000000000000000000000000000000000000000000000,
|
|
300000000000000000300000000000000000300000000000,
|
|
000000000000000000000000000000000000000000000000,
|
|
100000000000100000000000100000000000700000000000,
|
|
000000000000000000000000000000000000000000800000,
|
|
000000000000000000000000000000000000000000000000,
|
|
000000000000100000000000100000000000000000000000,
|
|
100000000000100000000000000000000000000000000000,
|
|
000000000000200000000000200000000000000000000000,
|
|
200000000000200000000000000000000000000000000000,
|
|
000000000000200000000000200000000000000000000000,
|
|
000000000000200000000000200000000000000000000000,
|
|
100000000000000000100000000000000000000000000000,
|
|
100000000000000000100000000000000000000000000000,
|
|
000000000000100000000000100000000000000000000000,
|
|
100000000000100000000000000000000000000000000000,
|
|
000000000000200000000000200000000000000000000000,
|
|
200000000000200000000000000000000000000000000000,
|
|
000000000000200000000000200000000000000000000000,
|
|
000000000000200000000000200000000000000000000000,
|
|
100000000000000000100000000000000000000000000000,
|
|
100000000000000000100000000000000000000000000000,
|
|
300000000000000000000000000000000000000000000000,
|
|
400000000000000000000000000000000000000000000000,
|
|
300000000000000000000000000000000000000000000000,
|
|
400000000000000000000000000000000000000000000000,
|
|
000000000000100000000000100000000000000000000000,
|
|
000000000000300000000000300000000000000000000000,
|
|
200000000000000000200000000000000000000000000000,
|
|
600000000000000000000000800000000000000000000000,
|
|
#GOGOSTART
|
|
300000000000000000300000000000000000300000000000,
|
|
000000000000000000000000000000000000000000000000,
|
|
300000000000000000300000000000000000300000000000,
|
|
000000000000000000000000000000000000000000000000,
|
|
#GOGOEND
|
|
100000000000000000000000100000000000100000000000,
|
|
100000000000000000000000100000000000100000000000,
|
|
200000000000000000200000000000000000000000000000,
|
|
600000000000000000000000800000000000000000000000,
|
|
#GOGOSTART
|
|
300000000000000000300000000000000000300000000000,
|
|
000000000000000000000000000000000000000000000000,
|
|
300000000000000000300000000000000000300000000000,
|
|
000000000000000000000000000000000000000000000000,
|
|
#GOGOEND
|
|
100000000000100000000000100000000000900000000000,
|
|
000000000000000000000000000000000000000000000000,
|
|
000000000000000000000000000000000000800000000000,
|
|
|
|
|
|
#END
|
|
|
|
|
|
COURSE:Easy
|
|
LEVEL:1
|
|
BALLOON:6,8
|
|
SCOREINIT:2200
|
|
SCOREDIFF:900
|
|
|
|
|
|
#START
|
|
|
|
|
|
300000000000000000300000000000000000300000000000,
|
|
000000000000000000000000000000000000000000000000,
|
|
300000000000000000300000000000000000300000000000,
|
|
000000000000000000000000000000000000000000000000,
|
|
300000000000000000000000000000000000700000000000,
|
|
000000000000000000000000000000000000000000800000,
|
|
000000000000000000000000000000000000000000000000,
|
|
000000000000000000000000100000000000000000000000,
|
|
000000000000000000000000100000000000000000000000,
|
|
000000000000000000000000100000000000000000000000,
|
|
000000000000000000000000100000000000000000000000,
|
|
000000000000000000000000200000000000000000000000,
|
|
000000000000000000000000200000000000000000000000,
|
|
500000000000000000000000000000000000800000000000,
|
|
000000000000000000000000000000000000000000000000,
|
|
000000000000000000000000100000000000000000000000,
|
|
000000000000000000000000100000000000000000000000,
|
|
000000000000000000000000100000000000000000000000,
|
|
000000000000000000000000100000000000000000000000,
|
|
000000000000000000000000200000000000000000000000,
|
|
000000000000000000000000200000000000000000000000,
|
|
500000000000000000000000000000000000800000000000,
|
|
000000000000000000000000000000000000000000000000,
|
|
100000000000000000000000000000000000000000000000,
|
|
100000000000000000000000000000000000000000000000,
|
|
200000000000000000000000000000000000000000000000,
|
|
200000000000000000000000000000000000000000000000,
|
|
000000000000000000000000300000000000000000000000,
|
|
000000000000000000000000300000000000000000000000,
|
|
600000000000000000000000000000000000800000000000,
|
|
000000000000000000000000000000000000000000000000,
|
|
#GOGOSTART
|
|
300000000000000000300000000000000000300000000000,
|
|
000000000000000000000000000000000000000000000000,
|
|
300000000000000000300000000000000000300000000000,
|
|
000000000000000000000000000000000000000000000000,
|
|
#GOGOEND
|
|
300000000000000000000000000000000000000000000000,
|
|
400000000000000000000000000000000000000000000000,
|
|
600000000000000000000000000000000000000000800000,
|
|
000000000000000000000000000000000000000000000000,
|
|
#GOGOSTART
|
|
300000000000000000300000000000000000300000000000,
|
|
000000000000000000000000000000000000000000000000,
|
|
300000000000000000300000000000000000300000000000,
|
|
000000000000000000000000000000000000000000000000,
|
|
#GOGOEND
|
|
300000000000000000000000000000000000900000000000,
|
|
000000000000000000000000000000000000000000000000,
|
|
000000000000000000000000000000000000800000000000,
|
|
|
|
|
|
#END
|
|
|