Files
2023-06-15 19:15:39 -05:00

535 lines
8.1 KiB
Plaintext

//TJADB Project
TITLE:Ultraman X
TITLEJA:ウルトラマンX
SUBTITLE:--Voyager feat. Kensuke Takahashi/Ultraman X
BPM:148
WAVE:Ultraman X.ogg
OFFSET:-2.200
DEMOSTART:42.292
COURSE:Edit
LEVEL:10
SCOREINIT:340
SCOREDIFF:70
#START
33000000,
212212212212,
200100200200100200200100200000101010200000000000,
1201111201111211,
1211221112112211,
1202111202111211,
201010001000200200100100202020101010200000200000,
300200000200000200000110,
33020202,
300000200000000000200000000000200200000000101000,
3030002000201100,
300200000200000200000110,
33020202,
300000200000000000200000000000200200000000101000,
300000000300000000300000202020200100100100100000,
1021021012210210,
1021021012212211,
1021021012210212,
1021221210202211,
100222100200100122200200,
100000202020100000200200100000101010200000100100,
2010211120104040,
000000000000000111200000,
1221221212212212,
101010200200101010200200101010100000400000000000,//25
#GOGOSTART
1011201202112012,
1011201202112022,
1011211202112012,
1011211210222211,
1201201012012212,
1021021012221110,
1201221030001120,
3040304020102222,
1011201202112012,
1011201202112022,
1011211202112012,
1011211210222211,
1201221012012212,
1021021012221220,
2111112022111120,
2221112222112000,
1222101122101112,
1400,
3011211121112111,
221111111221111111200000,//45
#GOGOEND
3333,
41414141,
200100100200100100200100100200101010200000000000,
1201111201111211,
1211221112112211,
1202111202111211,
1211221112112210,
100100202020100100202020101010200200101010202020,
101010100000100000200000100000200200100000200000,
100000200100101010000000100000100200101010000000,
101020101020101020201010201010201010500008000000,
400000400000400000400000202020101010200100100000,
300300300300222020111010,
100000100000200000100000000200100000200000101010,
201020112010201020112010,
2222,
200200200200200000200200101010100000400000000000,//62
#GOGOSTART
1011201202112012,
1011201202112022,
1011211202112012,
1011211210222211,
1201201012012212,
1021021012221110,
1201221030001120,
3040304020102222,
1111111111112111,
2111211121112111,
2111212111211150,
000000000000000000000000000000000008000000000000,
1201221012012212,
1021021012221222,
2111111122111111,
202020101010101010200200200200100100200100100000,
2111202211202221,
2010222222221110,
3011211121112111,
2111211121112110,
3022122212221222,
200020001000200100100100201010201010200000200000,//84
#GOGOEND
33000000,
212212212212,
200100200200100200200100200000101010200000000000,
#END
COURSE:Oni
LEVEL:7
BALLOON:11,5,5
SCOREINIT:450
SCOREDIFF:100
#START
33000000,
111111111111,
500000000000000000000008000000000000300000000000,
2010201120102010,
2011201120112110,
2010201120102010,
7008,
30001002,
1001001000100000,
10001002,
1000100000002200,
30001002,
1001001000100000,
10001002,
1000100022201110,
1001201000102000,
1011201000102010,
1001201000102000,
1011201000000020,
12121022,
12121021,
21212122,
1010202011102020,
3003003000003040,
3030304000001111,//25
#GOGOSTART
1000201011102000,
1000201011102000,
1000201010222050,
000000000000000000000000000000000008000000000000,
1001001020020020,
3003003030222220,
1001001030003040,
3040304000001111,
1000201011102010,
1000201012102010,
1000201010222050,
000000000000000000000000000000000008000000000000,
1001001020020020,
3003003030112110,
1001001020020020,
343400,
1110201110201110,
200000000000600000000000000000000008000000000000,
3011101110111010,
500000000000000000000000000008000000400000000000,//45
#GOGOEND
1111,
21212121,
,
2010201120102010,
2011201120112110,
2010201120102010,
2011201120112110,
1110222011102220,
1000102010222020,
1011100010121000,
200100200100200100200100200100200100500008000000,
44447008,
33337008,
11220122,
344344,
,
2222202200104000,//62
#GOGOSTART
1000201011102000,
1000201011102000,
1000201010222050,
000000000000000000000000000000000008000000000000,
1001001020020020,
3003003030222220,
1001001030003040,
3040304000001111,
1000201011102010,
1000201012102010,
1000201010222050,
000000000000000000000000000000000008000000000000,
1001001020020020,
3003003030112110,
1001001020020020,
343400,
1120201120201120,
200000000000600000000000000000000008000000000000,
3011101110111011,
1022201110222020,
3011101110111010,
500000000000000000000000000000000008000000000000,//84
#GOGOEND
33000000,
111111111111,
000000000000
#SCROLL 2
3000,
#END
COURSE:Hard
LEVEL:5
BALLOON:8,9
#START
33000000,
3333,
500000000000000000000008000000000000300000000000,
20120120,
21212120,
20120120,
7008,
11,
1001001000100000,
10001005,
000000000000000000000000000008000000000000000000,
11,
1001001000100000,
10001005,
000000000000000000000000000008000000000000000000,
10201120,
10201021,
10201120,
11210001,
22101011,
21011050,
000000000000000000000000000000000008000000000000,
,
3003003000003030,
33340010,//25
#GOGOSTART
10211020,
10211020,
1000201000222050,
000000000000000000000000000000000008000000000000,
1001001010010010,
3003003030000000,
1001001010003040,
34340010,
10211020,
10211020,
1000201000222050,
000000000000000000000000000000000008000000000000,
1001001020020020,
3003003040000000,
1001001020020020,
500000000000000000000000000008000000000000000000,
11211211,
200000000000600000000000000000000008000000000000,
3,
,//45
#GOGOEND
1212,
1212,
,
20120120,
21212120,
20120120,
21212120,
11221122,
500000000000000000000000000000000008000000000000,
1011100020222000,
500000000000000000000000000000000008000000000000,
44440000,
33330000,
11110222,
333444,
,
7008,//62
#GOGOSTART
10211020,
10211020,
1000201000222050,
000000000000000000000000000000000008000000000000,
1001001010010010,
3003003030000000,
1001001010003040,
34340010,
10211020,
10211020,
1000201000222050,
000000000000000000000000000000000008000000000000,
1001001020020020,
3003003040000000,
1001001020020020,
500000000000000000000000000008000000000000000000,
11211211,
200000000000600000000000000000000008000000000000,
3111,
10101110,
30101110,
500000000000000000000000000000000008000000000000,//84
#GOGOEND
33000000,
3333,
0003,
#END
COURSE:Normal
LEVEL:3
BALLOON:28,8,8,28,7
#START
33000000,
3333,
0003,
9,
,
0900,
8,
11,
1,
11,
2200,
11,
1,
11,
2200,
10011000,
10011000,
10011000,
10110000,
2220,
2220,
7008,
,
9009,
8,//25
#GOGOSTART
11,
11,
10110105,
000000000000000000000000000008000000000000000000,
33,
34,
33,
33330000,
11,
11,
10110105,
000000000000000000000000000008000000000000000000,
33,
34,
33,
44,
600000000000000000000000000000000000000000000008,
,
3,
,//45
#GOGOEND
11,
1111,
,
9,
,
0900,
8,
1111,
500000000000000000000000000008000000000000000000,
1122,
500000000000000000000000000008000000000000000000,
33330000,
44440000,
5,
000000000000000000000000000000000000000000000008,
,
7008,//62
#GOGOSTART
11,
11,
10110105,
000000000000000000000000000008000000000000000000,
33,
34,
33,
33330000,
11,
11,
10110105,
000000000000000000000000000008000000000000000000,
33,
34,
33,
44,
600000000000000000000000000000000000000000000008,
,
31,
1011,
3011,
500000000000000000000000000800000000000000000000,//84
#GOGOEND
33000000,
3333,
0003,
#END
COURSE:Easy
LEVEL:1
BALLOON:14,4,4,16,14,14
#START
3,
500000000000000000000000000000000000000000000008,
,
9,
,
0900,
8,
11,
1,
11,
3,
11,
1,
11,
3,
500000000000000000000000000000000000000000000008,
,
1,
1,
3,
3,
7008,
,
9009,
8,//25
#GOGOSTART
11,
11,
5,
000000000000000000000008000000000000000000000000,
33,
3,
33,
3,
11,
11,
5,
000000000000000000000008000000000000000000000000,
33,
3,
33,
3,
600000000000000000000000000000000000000000000008,
,
3,
,//45
#GOGOEND
,
,
,
7,
,
,
8,
9,
,
0900,
8,
3,
3,
9,
,
0900,
8,//62
#GOGOSTART
11,
11,
5,
000000000000000000000008000000000000000000000000,
33,
3,
33,
3,
11,
11,
5,
000000000000000000000008000000000000000000000000,
33,
3,
33,
3,
600000000000000000000000000000000000000000000008,
,
3,
,
3,
,//84
#GOGOEND
3,
500000000000000000000000000000000000000000000008,
0003,
#END