forked from ESE/ESE
171 lines
5.5 KiB
Plaintext
171 lines
5.5 KiB
Plaintext
//TJADB Project
|
||
TITLE:Unmei no Shizuku ~Destiny’s Star~
|
||
TITLEJA:運命のしずく~Destiny's star~
|
||
SUBTITLE:--GIRL NEXT DOOR/Ultraman Zero: The Revenge of Belial
|
||
BPM:136
|
||
WAVE:Unmei no Shizuku ~Destiny’s Star~.ogg
|
||
OFFSET:-1.967
|
||
DEMOSTART:1.719
|
||
|
||
COURSE:Oni
|
||
LEVEL:6
|
||
SCOREINIT:1780
|
||
SCOREDIFF:540
|
||
|
||
|
||
#START
|
||
|
||
|
||
100000000000200000100100100000000000200000100100,
|
||
100000000000200000100100100000200000100000200000,
|
||
100000000100000000500000000000000000000000000000,
|
||
000000000000000000000008000000000000000000000000,
|
||
100000000000200000100100100000000000200000100100,
|
||
100000000000200000100100100000200000100000200000,
|
||
100000000100000000100000000000100100200000000000,
|
||
300000000300000000300000000000000000000000000000,
|
||
100000000000200000100100200000000000200000100100,
|
||
200000000000200000100100200000100000200000100000,
|
||
200000000200000000500000000000000000000000000000,
|
||
000000000000000000000008000000000000000000000000,
|
||
100000000000200000100100200000000000200000100100,
|
||
200000000000200000100100200000100000200000100000,
|
||
200000000200000000200000000000100100200000000000,
|
||
300000000300000000300000000000000000000000000000,
|
||
|
||
#GOGOSTART
|
||
100000000100200000100000100100000100200000100000,
|
||
100000000100200000100000100000200100100000200000,
|
||
100000000100200000100000100100000100200000100000,
|
||
100000000100200000100000100000200100100100200000,
|
||
100000000100200000100000100100000100200000100000,
|
||
100000000100200000100000100000200100100000200000,
|
||
300000000000400000300000000000300000000000300000,
|
||
000000400000600000000000000000000000000008000000,
|
||
|
||
#GOGOEND
|
||
|
||
|
||
#END
|
||
|
||
|
||
COURSE:Hard
|
||
LEVEL:5
|
||
SCOREINIT:2300
|
||
SCOREDIFF:930
|
||
|
||
|
||
#START
|
||
|
||
|
||
100000000000000000100100100000000000000000100100,
|
||
100000000000000000100100100000000000100000100000,
|
||
100000000100000000500000000000000000000000000000,
|
||
000000000000000000000800000000000000000000000000,
|
||
100000000000000000100100100000000000000000100100,
|
||
100000000000000000100100100000000000100000100000,
|
||
100000000100000000100000000000000000200000000000,
|
||
300000000000000000000000000000000000000000000000,
|
||
100000000000000000100100100000000000000000100100,
|
||
100000000000000000100100100000000000200000200000,
|
||
200000000200000000500000000000000000000000000000,
|
||
000000000000000000000800000000000000000000000000,
|
||
100000000000000000100100100000000000000000100100,
|
||
100000000000000000100100100000000000200000200000,
|
||
200000000200000000200000000000000000100000000000,
|
||
300000000000000000000000000000000000000000000000,
|
||
#GOGOSTART
|
||
100000000000200000100000000000100000200000000000,
|
||
100000000000200000000000100000100000200000000000,
|
||
100000000000200000100000000000100000200000000000,
|
||
100000100000200000000000100000100000200000000000,
|
||
100000000000200000100000000000100000200000000000,
|
||
100000000000200000000000100000100000200000000000,
|
||
300000000000000000300000000000300000000000600000,
|
||
000000000000000000000000000000000000800000000000,
|
||
#GOGOEND
|
||
|
||
|
||
#END
|
||
|
||
|
||
COURSE:Normal
|
||
LEVEL:5
|
||
SCOREINIT:2580
|
||
SCOREDIFF:1550
|
||
|
||
|
||
#START
|
||
|
||
|
||
100000000000200000000000100000000000200000000000,
|
||
100000000000000000000000100000000000100000100000,
|
||
100000000000000000500000000000000000000000000000,
|
||
000000000000000000000080000000000000000000000000,
|
||
100000000000200000000000100000000000200000000000,
|
||
100000000000000000000000100000000000100000100000,
|
||
100000000000000000000000100000000000000000000000,
|
||
300000000000000000000000000000000000000000000000,
|
||
100000000000200000000000100000000000200000000000,
|
||
100000000000000000000000100000000000200000200000,
|
||
200000000000000000500000000000000000000000000000,
|
||
000000000000000000000080000000000000000000000000,
|
||
100000000000200000000000100000000000200000000000,
|
||
100000000000000000000000100000000000200000200000,
|
||
200000000000000000000000100000000000000000000000,
|
||
300000000000000000000000000000000000000000000000,
|
||
#GOGOSTART
|
||
100000000000200000000000100000100000100000000000,
|
||
100000000000200000000000100000000000000000000000,
|
||
100000000000200000000000100000100000100000000000,
|
||
100000000000200000000000100000000000200000000000,
|
||
100000000000200000000000100000100000100000000000,
|
||
100000000000200000000000100000000000000000000000,
|
||
300000000000000000000000300000000000000000600000,
|
||
000000000000000000000000000000000000000080000000,
|
||
#GOGOEND
|
||
|
||
|
||
#END
|
||
|
||
|
||
COURSE:Easy
|
||
LEVEL:3
|
||
SCOREINIT:2140
|
||
SCOREDIFF:1900
|
||
|
||
|
||
#START
|
||
|
||
|
||
100000000000000000000000100000000000000000000000,
|
||
100000000000000000000000100000000000100000000000,
|
||
100000000000000000500000000000000000000000000000,
|
||
000000000000000000800000000000000000000000000000,
|
||
100000000000000000000000100000000000000000000000,
|
||
100000000000000000000000100000000000100000000000,
|
||
100000000000000000000000100000000000000000000000,
|
||
300000000000000000000000000000000000000000000000,
|
||
100000000000000000000000100000000000000000000000,
|
||
200000000000000000000000100000000000100000000000,
|
||
100000000000000000500000000000000000000000000000,
|
||
000000000000000000800000000000000000000000000000,
|
||
100000000000000000000000100000000000000000000000,
|
||
200000000000000000000000100000000000100000000000,
|
||
100000000000000000000000100000000000000000000000,
|
||
300000000000000000000000000000000000000000000000,
|
||
#GOGOSTART
|
||
100000000000000000000000100000000000000000000000,
|
||
100000000000100000000000100000000000000000000000,
|
||
100000000000000000000000100000000000000000000000,
|
||
100000000000100000000000100000000000000000000000,
|
||
200000000000000000000000200000000000000000000000,
|
||
100000000000100000000000100000000000000000000000,
|
||
300000000000000000000000300000000000000000600000,
|
||
000000000000000000000000000000000000800000000000,
|
||
#GOGOEND
|
||
|
||
|
||
#END
|
||
|