forked from ESE/ESE
97 lines
3.4 KiB
Plaintext
97 lines
3.4 KiB
Plaintext
//TJADB Project
|
|
TITLE:Utabito
|
|
TITLEJA:詠人
|
|
SUBTITLE:--Saburo Kitajima/Ojarumaru
|
|
BPM:105
|
|
WAVE:Utabito.ogg
|
|
OFFSET:-2.654
|
|
DEMOSTART:41.427
|
|
|
|
COURSE:Oni
|
|
LEVEL:1
|
|
|
|
|
|
#START
|
|
|
|
|
|
000000000000000000000000000000000000000000000000,
|
|
000000000000000000000000000000000000000000000000,
|
|
100000000000000000000000000000000000000000000000,
|
|
100000000000000000000000000000000000000000000000,
|
|
100000000000000000000000100000000000000000000000,
|
|
100000000000000000000000000000000000000000000000,
|
|
100000001000000000000000100000000000000000000000,
|
|
100000001000000000000000100000000000000000000000,
|
|
100000001000000000000000100000000000000000000000,
|
|
100000001000000000000000100000000000100000000000,
|
|
100000001000000000000000100000000000000000000000,
|
|
100000001000000000000000100000000000100000000000,
|
|
100000001000000000000000100000000000000000000000,
|
|
100000001000000000000000100000000000100000000000,
|
|
100000001000000000000000100000000000000000000000,
|
|
100000001000000000000000100000000000100000000000,
|
|
000000000000200000000000200000000000000000000000,
|
|
100000000000000000000000100000000000000000000000,
|
|
100000001000000000001000100000000000000000000000,
|
|
100000000000000000000000100000000000000000000000,
|
|
100000001000000000001000100000000000000000000000,
|
|
100000000000000000000000100000000000000000000000,
|
|
100000001000000000000000500000000000000000000000,
|
|
000000000008000000000000000000000000200000000000,
|
|
200000000000000000000000100000000000000000000000,
|
|
100000000000000000000000100000000000000000000000,
|
|
300000000000000000000000100000001000000000000000,
|
|
100000001000000000000000100000001000000000000000,
|
|
100000000000100000000000100000000000000000000000,
|
|
100000000000000000000000500000000000000000000000,
|
|
000000000000000000000008000000000000000000000000,
|
|
|
|
|
|
#END
|
|
|
|
|
|
COURSE:Easy
|
|
LEVEL:2
|
|
SCOREINIT:1840
|
|
SCOREDIFF:1420
|
|
|
|
|
|
#START
|
|
|
|
|
|
000000000000000000000000000000000000000000000000,
|
|
000000000000000000000000000000000000000000000000,
|
|
100000000000000000000000000000000000000000000000,
|
|
100000000000000000000000000000000000000000000000,
|
|
100000000000000000000000100000000000000000000000,
|
|
100000000000000000000000000000000000000000000000,
|
|
100000001000000000000000100000000000000000000000,
|
|
100000001000000000000000100000000000000000000000,
|
|
100000001000000000000000100000000000000000000000,
|
|
100000001000000000000000100000000000100000000000,
|
|
100000001000000000000000100000000000000000000000,
|
|
100000001000000000000000100000000000100000000000,
|
|
100000001000000000000000100000000000000000000000,
|
|
100000001000000000000000100000000000100000000000,
|
|
100000001000000000000000100000000000000000000000,
|
|
100000001000000000000000100000000000100000000000,
|
|
000000000000200000000000200000000000000000000000,
|
|
100000000000000000000000100000000000000000000000,
|
|
100000001000000000001000100000000000000000000000,
|
|
100000000000000000000000100000000000000000000000,
|
|
100000001000000000001000100000000000000000000000,
|
|
100000000000000000000000100000000000000000000000,
|
|
100000001000000000000000500000000000000000000000,
|
|
000000000008000000000000000000000000200000000000,
|
|
200000000000000000000000100000000000000000000000,
|
|
100000000000000000000000100000000000000000000000,
|
|
300000000000000000000000100000001000000000000000,
|
|
100000001000000000000000100000001000000000000000,
|
|
100000000000100000000000100000000000000000000000,
|
|
100000000000000000000000500000000000000000000000,
|
|
000000000000000000000008000000000000000000000000,
|
|
|
|
|
|
#END
|
|
|