forked from ESE/ESE
401 lines
5.5 KiB
Plaintext
401 lines
5.5 KiB
Plaintext
//TJADB Project
|
|
TITLE:We Can!
|
|
TITLEJA:ウィーキャン!
|
|
SUBTITLE:--Kishidan/ONE PIECE
|
|
SUBTITLEJA:「ワンピース」より
|
|
BPM:180
|
|
WAVE:We Can!.ogg
|
|
OFFSET:-1.573
|
|
DEMOSTART:62.882
|
|
|
|
COURSE:Oni
|
|
LEVEL:7
|
|
SCOREINIT:510
|
|
SCOREDIFF:135
|
|
|
|
|
|
#START
|
|
|
|
|
|
11221012,
|
|
02020210,
|
|
11221012,
|
|
0020002000111010,
|
|
00201120,
|
|
10210121,
|
|
00001120,
|
|
10101110,
|
|
1010101000111000,
|
|
11202102,
|
|
1010100010111000,
|
|
11202102,
|
|
1010100010111000,
|
|
11202112,
|
|
1010100020222000,
|
|
2222002222002222,
|
|
0022220022201110,
|
|
10221102,
|
|
0010201020201011,
|
|
10211021,
|
|
0010201010101110,
|
|
10221102,
|
|
0010201020201011,
|
|
10211021,
|
|
0010200010101110,
|
|
10202102,
|
|
0010201020201011,
|
|
10211021,
|
|
0010200010101110,
|
|
10221102,
|
|
0011201120102020,
|
|
1011102020111020,
|
|
2011102020111020,
|
|
1000201000111020,
|
|
1011100020222000,
|
|
500000000000000000000000000000000008000000000000,
|
|
21112400,
|
|
1011102020111020,
|
|
2011102020111020,
|
|
1000201000111020,
|
|
1011100020222000,
|
|
1011101110111020,
|
|
1011101110111000,
|
|
500000000000000000000000000000000008000000000000,
|
|
1020102022221110,
|
|
3,
|
|
|
|
#GOGOSTART
|
|
1011101022201020,
|
|
1020102020111000,
|
|
1011101022201020,
|
|
1020102020111020,
|
|
0000000010111020,
|
|
1022201010222000,
|
|
3333,
|
|
3022203000300000,
|
|
1011101022201020,
|
|
1020102020111000,
|
|
1011101022201020,
|
|
1020102020111020,
|
|
0000000010111020,
|
|
1022102210221020,
|
|
1011200030003000,
|
|
3022203000300000,
|
|
|
|
#GOGOEND
|
|
1011101110112000,
|
|
1011101110112000,
|
|
100000100100100000000000500000000000000008000000,
|
|
1022201110222011,
|
|
1011101110112000,
|
|
1011101110112000,
|
|
100000100100100000000000500000000000000008000000,
|
|
1022201110222011,
|
|
1022201110112000,
|
|
1022201110112000,
|
|
100000200200200000000000500000000008000000000000,
|
|
10101110,
|
|
1010101000111000,
|
|
1011200020101020,
|
|
1011100010111000,
|
|
1011200020101020,
|
|
1011200010111000,
|
|
1011200022101020,
|
|
1011200030304000,
|
|
|
|
|
|
#END
|
|
|
|
|
|
COURSE:Hard
|
|
LEVEL:6
|
|
BALLOON:20,14
|
|
SCOREINIT:570
|
|
SCOREDIFF:130
|
|
|
|
|
|
#START
|
|
|
|
|
|
11111012,
|
|
02020220,
|
|
11111012,
|
|
02020201,
|
|
00001120,
|
|
10210121,
|
|
0011,
|
|
500000000000000000000000000000000008000000000000,
|
|
600000000000000000000000000000000008000000000000,
|
|
11201002,
|
|
0010100010111000,
|
|
11201002,
|
|
0010100010111000,
|
|
11201002,
|
|
0010100020222000,
|
|
11201002,
|
|
0010100020222000,
|
|
10221102,
|
|
01212210,
|
|
10011001,
|
|
01101110,
|
|
10221102,
|
|
01212210,
|
|
10011001,
|
|
01101110,
|
|
10202102,
|
|
01212210,
|
|
10011001,
|
|
01101110,
|
|
10221102,
|
|
01212210,
|
|
10112102,
|
|
02110121,
|
|
500000000000000008000000000000000000000000000000,
|
|
4433,
|
|
500000000000000000000000000000000000000000000008,
|
|
,
|
|
10112102,
|
|
02110121,
|
|
500000000000000008000000000000000000000000000000,
|
|
4433,
|
|
500000000000000000000000000000000000000000000008,
|
|
8,
|
|
9,
|
|
09,
|
|
8,//46
|
|
|
|
#GOGOSTART
|
|
1011101020001020,
|
|
0020002000111000,
|
|
1011101020001040,
|
|
0040004000111020,
|
|
0000000010111010,
|
|
20211000,
|
|
3333,
|
|
3022203000300000,
|
|
1011101020001020,
|
|
0020002000111000,
|
|
1011101020001040,
|
|
0040004000111020,
|
|
0000000010111010,
|
|
20210121,
|
|
0033,
|
|
3022203000300000,//62
|
|
|
|
#GOGOEND
|
|
1011101110002000,
|
|
1011101110002000,
|
|
100000100100100000000000500000000000000008000000,
|
|
1022200010222000,
|
|
1011101110002000,
|
|
1011101110002000,
|
|
100000100100100000000000500000000000000008000000,
|
|
1022200010222000,
|
|
1022201110002000,
|
|
1022201110002000,
|
|
1022200070000000,
|
|
0008,
|
|
600000000000000000000000000000000008000000000000,
|
|
1011100020100020,
|
|
0010100010111000,
|
|
1011100020100020,
|
|
0010100010111000,
|
|
1011100020100020,
|
|
01104440,
|
|
,
|
|
,
|
|
,
|
|
#END
|
|
|
|
COURSE:Normal
|
|
LEVEL:4
|
|
BALLOON:16,10
|
|
SCOREINIT:750
|
|
|
|
#START
|
|
1,
|
|
1,
|
|
1,
|
|
1,
|
|
1022,
|
|
10110101,
|
|
0011,
|
|
500000000000000000000000000000000008000000000000,
|
|
600000000000000000000000000000000008000000000000,
|
|
1210,
|
|
1110,
|
|
1210,
|
|
1110,
|
|
1210,
|
|
1120,
|
|
1210,
|
|
1120,
|
|
1210,
|
|
1111,
|
|
2,
|
|
,
|
|
1210,
|
|
1111,
|
|
2,
|
|
,
|
|
1210,
|
|
1122,
|
|
1,
|
|
,
|
|
1210,
|
|
1122,
|
|
1120,
|
|
1122,
|
|
500000000000000008000000000000000000000000000000,
|
|
3333,
|
|
500000000000000000000000000000000000000000000008,
|
|
,
|
|
1120,
|
|
1122,
|
|
500000000000000008000000000000000000000000000000,
|
|
4444,
|
|
500000000000000000000000000000000000000000000008,
|
|
,
|
|
9,
|
|
09,
|
|
8,//46
|
|
|
|
#GOGOSTART
|
|
10201001,
|
|
01010110,
|
|
10201003,
|
|
03030304,
|
|
0012,
|
|
11,
|
|
3333,
|
|
600000000000000000000000000000000008000000000000,
|
|
10201001,
|
|
01010110,
|
|
10201003,
|
|
03030304,
|
|
0012,
|
|
10110102,
|
|
0011,
|
|
600000000000000000000000000000000008000000000000,//62
|
|
|
|
#GOGOEND
|
|
3004,
|
|
3004,
|
|
36,
|
|
000000000000000000000000000000000008000000000000,
|
|
3004,
|
|
3004,
|
|
36,
|
|
000000000000000000000000000000000008000000000000,
|
|
3004,
|
|
3004,
|
|
37,
|
|
0008,
|
|
600000000000000000000000000000000008000000000000,
|
|
1210,
|
|
1122,
|
|
1210,
|
|
1122,
|
|
1210,
|
|
1144,
|
|
,
|
|
,
|
|
,
|
|
#END
|
|
|
|
COURSE:Easy
|
|
LEVEL:2
|
|
BALLOON:8,5
|
|
SCOREINIT:690
|
|
|
|
#START
|
|
#SCROLL 0.8
|
|
3,
|
|
3,
|
|
3,
|
|
3,
|
|
3,
|
|
11,
|
|
1,
|
|
500000000000000000000000000000000008000000000000,
|
|
600000000000000000000000000008000000000000000000,
|
|
11,
|
|
1,
|
|
11,
|
|
1,
|
|
11,
|
|
2,
|
|
11,
|
|
2,
|
|
1,
|
|
11,
|
|
1,
|
|
,
|
|
1,
|
|
11,
|
|
1,
|
|
,
|
|
1,
|
|
11,
|
|
2,
|
|
,
|
|
11,
|
|
1,
|
|
11,
|
|
1,
|
|
500000000000000008000000000000000000000000000000,
|
|
3333,
|
|
500000000000000000000000000000000000000000000008,
|
|
,
|
|
11,
|
|
1,
|
|
500000000000000008000000000000000000000000000000,
|
|
3333,
|
|
500000000000000000000000000000000000000000000008,
|
|
,
|
|
9,
|
|
09,
|
|
8,//46
|
|
|
|
#GOGOSTART
|
|
1110,
|
|
11,
|
|
1110,
|
|
500000000000000000000000000000000000000000000008,
|
|
01,
|
|
1110,
|
|
3333,
|
|
600000000000000000000000000008000000000000000000,
|
|
1110,
|
|
11,
|
|
1110,
|
|
500000000000000000000000000000000000000000000008,
|
|
01,
|
|
1110,
|
|
11,
|
|
600000000000000000000000000008000000000000000000,//62
|
|
|
|
#GOGOEND
|
|
3003,
|
|
3003,
|
|
36,
|
|
000000000000000000000000000008000000000000000000,
|
|
3003,
|
|
3003,
|
|
36,
|
|
000000000000000000000000000008000000000000000000,
|
|
3003,
|
|
3003,
|
|
37,
|
|
00000800,
|
|
600000000000000000000000000008000000000000000000,
|
|
1110,
|
|
11,
|
|
1110,
|
|
11,
|
|
1110,
|
|
1033,
|
|
,
|
|
,
|
|
,
|
|
#END |